Dua Lipa
















5f4b79be5cc08f2e9776d22d04acdbb.jpg (167.63 KB, 下载次数: 0)

下载附件



2小时前 上传














9776b717c71e866f701c3bd6a358015.jpg (236.34 KB, 下载次数: 0)

下载附件



2小时前 上传










专辑介绍:

*葛莱美奖、全英音乐奖最佳新人荣耀加持,危险系缪思女神引爆2020流行乐坛!

*动员玛丽亚凯莉、魔力红、小贾斯汀、蕾哈娜、红髮艾德等幕后推手齐力掌舵,将深具复古怀旧感的各类舞风,融入到新颖和现代的潮流之中,打造舞动不停歇的流行乐章!

*逼近6亿串流量的〈Don`t Start Now〉,登上2019年度歌曲排行之Idolator网站冠军、时代杂志第5名,霸佔英美两地流行榜亚军,征服美国舞曲榜冠军!

集性感、时尚、智慧于一身,唱作俱佳的危险系缪思女神Dua Lipa横扫全球。打从BBC「2016年度之声」、NME Awards「最佳新人」,一路到葛莱美和全英音乐奖的「最佳新人」全面征服,还让英伦天团Coldplay、国际巨星Bruno Mars倾心不已,成为巡演的指定嘉宾!傲人缔造Spotify史上专辑串流量最多的女歌手、YouTube平台大破10亿点击量的最年轻独唱女艺人!

首张同名大碟好歌一首接一首,专辑全球开出400万销量、单曲全球累积4000万销量!收录:全英冠军神曲〈New Rules〉 已经来到13亿惊人串流量门槛,Dua成为继2015年Adele之后,首位登上全英金榜冠军的女歌手;累积 9亿串流量的〈IDGAF〉,佔领美国舞曲榜冠军+英国金榜季军!除了个人作品,Dua也是各界明星排队邀约合作对象,包括:高富帅Calvin Harris精心打造Disco Funk/Tropical House的9亿串流量舞曲〈One Kiss〉,狂霸英国流行和舞曲双榜冠军;史上最年轻百大DJ冠军Martin Garrix操刀〈Scared To Be Lonely〉,登记英国舞曲榜亚军,超过7亿串流量;两大超级DJ/製作人Mark Ronson和Diplo组成最强双人团队Silk City,全力拱出House劲作〈Electricity〉,抱回葛莱美「最佳舞曲录音」,Spotify破3亿点击量;韩国最强怪物新人女团BLACKPINK合唱的〈Kiss And Make Up〉,同为3亿串流量;不思议和跨界男高音Andrea Bocelli对唱〈If Only〉!此外,Dua也跨界献声大银幕,替4亿美金票房「艾莉塔:战斗天使」演唱主题曲〈Swan Song〉、破3亿美金票房「格雷的五十道阴影:自由」负责插曲〈High〉!

全新瞩目大碟《Future Nostalgia》,一次动员葛莱美荣耀的Jeff Bhasker(马克朗森)+Danja(玛丽亚凯莉)+Jason Evigan(魔力红)+Ian Kirkpatrick(小贾斯汀)+Skylar Mones(蕾哈娜)+The Monsters and the Strangerz(布兰妮)+Stuart Price(女神凯莉)+TMS(红髮艾德)+Watt(拉娜德芮)…等当红製作大师/团队齐力掌舵!第一张专辑大部分都在诉说感伤与心碎情事,儘管这次仍透露相同的心痛情节,但另一方面,却提供更多希望的力量,也更有趣、引人入胜。同名单曲〈Future Nostalgia〉,主旨就是一路Fun下去,过瘾串联Disco、Electro和Funk元素,Dua还小秀饶舌技艺;逼近6亿串流量的〈Don`t Start Now〉,踩著Nu-Disco律动前行,滚石杂志好评:「引领至事业更高峰,终于找到杜娃在流行领域的立足点」,发行短短2个月时间,即登上2019年度歌曲排行之Idolator网站冠军、时代杂志第5名,霸佔英美两地流行榜亚军席次,征服美国舞曲榜冠军;再接再厉的〈Physical〉,轻鬆破亿串流量,歌词改写澳洲百变女王Olivia Newton-John的同名金曲,率先攀上英国金榜第7名位置,从80年代Synthpop领域吸收能量,滚石杂志评断绝对是首足以轰动夜店的大夯歌,引发一波有氧舞蹈风潮;热情有劲的〈Break My Heart〉,取样澳洲摇滚天团INXS的冠军夯歌〈Need You Tonight〉,保留浓烈Funky味道;节奏明快混搭伴随嘻哈背景的第一支完成曲〈Levitating〉,勾勒出新专辑的雏形;〈Love Again〉精彩蒐集英国电子摇滚鬼才Jyoti Mishra化名White Town的成名关键〈Your Woman〉片段,编曲则向90年代吸收能量;最后的〈Boys Will Be Boys〉,教导女孩们怎麽爱自己、保护自己!Dua将深具复古怀旧感的童年记忆和灵感,融入到新颖和现代的潮流之中,打造舞动不停歇的流行乐章!

“来自一位敢于袒露真心的明星的完美流行乐。” -5星满分评价,NME杂志

“重新塑造这个时代的迪斯科舞曲” -5星满分评价,《Wonderland》杂志

“这张专辑将改变她的职业生涯和整个流行音乐格局” -5星满分评价,《The Irish Times》

Dua Lipa备受期待的全新专辑“Future Nostalgia”现已正式发行,共收录了包括全球大热单曲“Don’t Start Now”、“Physical”以及最新释出的单曲“Break My Heart”在内的11支单曲。



专辑曲目:

1. Future Nostalgia
2. Don't Start Now
3. Cool
4. Physical
5. Levitating
6. Pretty Please
7. Hallucinate
8. Love Again
9. Break My Heart
10. Good In Bed
11. Boys Will Be Boys




Exact Audio Copy V1.5 from 20. February 2020

EAC 抓取日志文件从15. 十二月 2020, 14:11

Dua Lipa / Future Nostalgia

使用驱动器:ASUS SDRW-08D2S-U Adapter: 1ID: 0

读取模式 : 可靠Secure
使用精确流 : 是
清空音频缓存 : 是
使用 C2 指示器 : 否

读取偏移校正: : 0
读取 Lead-In 和 Lead-Out : 否
用静音填充抓取中丢失偏移的采样 : 是
去除首尾静音块 : 否
在CRC 计算中使用了空样本 : 是
已用接口 : Win NT 及 2000 本地 Win32 接口

所用输出模式: : 内部 WAV 函数
样本格式 : 44.100 Hz; 16 Bit; 立体声


已抓取 CD 的 TOC

音轨 | 起始 | 长度 |起始扇区|结束扇区
--------------------------------------------
1 |0:00.00 |3:04.66 | 0 |13865
2 |3:04.66 |3:03.21 |13866 |27611
3 |6:08.12 |3:29.44 |27612 |43330
4 |9:37.56 |3:13.62 |43331 |57867
5 | 12:51.43 |3:23.61 |57868 |73153
6 | 16:15.29 |3:14.46 |73154 |87749
7 | 19:30.00 |3:28.37 |87750 | 103386
8 | 22:58.37 |4:18.01 | 103387 | 122737
9 | 27:16.38 |3:41.61 | 122738 | 139373
10 | 30:58.24 |3:38.57 | 139374 | 155780
11 | 34:37.06 |2:46.23 | 155781 | 168253


范围状态及错误

已选择范围

文件名 C:\Users\888\Desktop\Dua Lipa - Future Nostalgia.wav

峰值电平 99.8 %
抓取速度 4.1 X
范围质量 100.0 %
复制 CRC A98CB361
复制成功

没有错误发生

状态报告结尾

==== 记录校验日志 32FA21DA4987F7136899CBE1163CAD7119F8B9D3C28673E7D0E49968A0520BE2 ====





专辑为自购,压缩包有封面,碟片的扫描图片。




链接:包年会员可查看
 
 
由于百度网盘原因,易导致资源失效,您可以在页面上提交失效申报,我们尽量修复!
网易&QQ音乐文件解锁 /