Katy Perry
















3ecb8a25c76d957f7a0bf03f07f61a2.jpg (242.93 KB, 下载次数: 0)

下载附件



3小时前 上传














427247985c84174ebccd2178b7fb853.jpg (102.53 KB, 下载次数: 0)

下载附件



3小时前 上传










专辑介绍:

★流行天后 睽违三年大作 空降英美TOP5最新大碟

★收录破亿串流神曲"Never Really Over"与主打曲"Smile"、"Daisies"等全新力作

8月28日,凯蒂佩芮(Katy Perry)的第五张录音室专辑《Smile》“中国特别版”数字专辑正式发行,该版本是全球唯一包含加值曲目的《Smile》数字专辑。常规版本数字专辑内含12首歌,而“中国特别版”将多收录2首作品《Message From Katy》和《High On Your Supply》。

在今年如此艰难的年代之下,乐坛更是需要鼓舞和振奋人心的作品!Katy Perry走过人生的最低潮,行过事业与人际关係破碎的幽谷,Katy Perry并没有被困境所打倒,她依旧能够掌握当今乐坛流行趋势,并且总能够藉由音符撼动人心,在流行、摇滚、迪斯科等乐风之中重拾自我,拼凑起全新的Katy Perry;时隔三年,全球乐迷引颈期盼,Katy Perry不仅用她的微笑治癒了自己,也治癒了全球无数人。

Katy Perry出道至今已有将近20年的岁月,缔造过无数传奇的她,如今已是当代乐坛的超级天后,不仅拥有9首公告牌冠军单曲、4项吉尼斯世界纪录、5座公告牌音乐大奖、5座全美音乐奖、1座全英音乐奖、1座朱诺奖等等,并且在全球卖出超过1亿4千万张专辑和单曲,YouTube上累积超过200亿次观看、Spotify达到约40亿次串流,种种丰功伟业让当今许多人望尘莫及。原本事业与前途一片光明的她,却在2017年迎来人生中最沉重的打击;当时她的事业陷入了低潮,【Witness】虽然叫好却不叫座,而最让她分崩离析的,便是与未婚夫Orlando Bloom的分手。Katy Perry表示,当时的她像是碎成两半,如果心境上没有适时转变,她很有可能就已经不在这个世界上了,所幸两人之后重修旧好,Katy Perry也因此再拥有了人生的动力。Katy Perry透过信仰而逐渐重拾自信,加上爱人的陪伴,她的情况日渐好转,慢慢地,她将这一段心路历程幻化成音符与节奏写入到音乐之中,她表示新的专辑就像是「在隧道的尽头终于找到了光明」,这段创作过程就如同「一段迈向光明的旅程,其中充满了坚定、希望,以及爱的故事」,时隔3年Katy Perry终于交出了这张【Smile】。

【Smile】请到洛杉矶天王金曲製造机Josh Abraham(Kelly Clarkson、Shakira、Carly Rae Jepsen),以及雪梨王牌双人组Dreamlab(Miley Cyrus、Selena Gomez、Demi Lovato、Nicki Minaj)等人共同为Katy Perry操刀专辑;开场的"Never Really Over",堪称2019年年度神曲之一,不仅同时打入英国金榜单曲排行以及告示牌热门单曲榜的Top 20,更摘下告示牌舞曲榜冠军,流行电子的曲风鼓舞人心的跳动和畅快氛围,席捲YouTube超越1亿次观看,Spotify更是一举刷出超过4亿次串流,证明那个乐坛的天后终于从音乐中再次重生;诉说著成功与实践、梦想与现实的”Daisies”,可说是专辑中最诚挚的创作告白,Katy Perry像是把全部的自己摊开给观众,并且已挺著身孕的他以母亲的身分拍摄MV,不仅塑造了话题,更让歌迷感动万分,YouTube和Spotify都双双缔造了2200万与6800万的惊人成绩;除此之外,"Small Talk"、"Smile"、”Never Worn White”等作品,也都展现了Katy Perry在过去三年中与自我对话的不同面向。

“痛苦总会过去,那是暂时的。”这是Katy Perry第五张录音室专辑《Smile》想传达的信息。她曾分享道“整张专辑是我通往光明的人生旅程,包含坚韧、希望与爱的故事。”专辑中的歌曲写于过去的两年半的时间里。关于专辑的同名曲《Smile》,她说:“这首歌写于我走出生命中最黑暗时期的过程中,现在再听这首歌,它总会提醒我,我已经走出了黑暗。这是充满能量和希望的三分钟。”

【Smile】是Katy Perry突破新生的转捩之作,象徵她走过生命中的高低潮再次回归,让你我一同见证天后的浴火重生。

全新大碟即将到来之际,以《Smile》为设计灵感,Katy Perry与YEPP合作的联名款周边服饰将在YEPP官方线上商店开启售卖。

自五月份《Daisies》发行以来,该单曲已在全球收获1.25亿流媒体播放量,并冲进Hot AC电台榜单前十位。尽管在隔离期间,她仍以在线的方式于“American Idol”总决赛、“Good Morning America”等直播活动上创意表演《Daisies》。

自Katy Perry签约Capitol Records并于2008年首发作品以来,她凭借专辑《One of the Boys》、《Teenage Dream》、《PRISM》和《Witness》,以及随后相继发行的新作《Never Really Over》(金唱片销量认证)、《Never Worn White》、《Small Talk》、《Harleys In Hawaii》、《Daisies》和《Smile》在全球缔造了400亿流媒体播放量、4500万张折合专辑销量以及1.35亿单曲销量的佳绩。

发布于2013年,冠军单曲《Roar》的MV播放量已超过31亿,这标志着Katy Perry成为第一位越过该里程碑的女性艺人。她还是首位拥有4支超10亿播放量MV的女性艺人,其中《Firework》、《Last Friday Night》目前各收获超12亿播放量,《Dark Horse》已收获超28亿播放量。她成为拥有超过1亿首数字单曲销量认证的五位艺人其中之一,并且是Capitol Records旗下第一位加入“美国唱片工业协会1亿首销量认证”(RIAA 100 Million Certified Songs)俱乐部的艺人。

Katy Perry不仅是历史上最畅销的音乐人之一,她也是一位积极的慈善家。2013年,因她在改善全球儿童生活质量方面作出的贡献,Katy Perry被任命为联合国儿童基金会亲善大使。从越南到马达加斯加,Katy Perry一直在用她的影响力为儿童发声,支持联合国儿童基金会使命——每个儿童都拥有获得健康、教育、平等和保护的权利。2016年,她被授予奥黛丽赫本人道主义奖。


专辑曲目:

01.Never Really Over
02.Cry About It Later
03.Teary Eyes
04.Daisies
05.Resilient
06.Not the End of the World
07.Smile
08.Champagne Problems
09.Tucked
10.Harleys in Hawaii
11.Only Love
12.What Makes A Woman




Exact Audio Copy V1.3 from 2. September 2016

EAC 抓取日志文件从25. 四月 2021, 13:34

Katy Perry / Smile

使用驱动器:ASUS SDRW-08D2S-U Adapter: 1ID: 0

读取模式 : 可靠Secure
使用精确流 : 是
清空音频缓存 : 是
使用 C2 指示器 : 否

读取偏移校正: : 0
读取 Lead-In 和 Lead-Out : 否
用静音填充抓取中丢失偏移的采样 : 是
去除首尾静音块 : 否
在CRC 计算中使用了空样本 : 是
已用接口 : Win NT 及 2000 本地 Win32 接口

所用输出模式: : 内部 WAV 函数
样本格式 : 44.100 Hz; 16 Bit; 立体声


已抓取 CD 的 TOC

音轨 | 起始 | 长度 |起始扇区|结束扇区
--------------------------------------------
1 |0:00.00 |3:43.22 | 0 |16746
2 |3:43.22 |3:09.58 |16747 |30979
3 |6:53.05 |3:02.44 |30980 |44673
4 |9:55.49 |2:54.24 |44674 |57747
5 | 12:49.73 |3:07.61 |57748 |71833
6 | 15:57.59 |2:58.49 |71834 |85232
7 | 18:56.33 |2:46.67 |85233 |97749
8 | 21:43.25 |3:16.15 |97750 | 112464
9 | 24:59.40 |3:07.33 | 112465 | 126522
10 | 28:06.73 |3:05.36 | 126523 | 140433
11 | 31:12.34 |3:18.54 | 140434 | 155337
12 | 34:31.13 |2:11.22 | 155338 | 165184


范围状态及错误

已选择范围

文件名 C:\Users\12751\Desktop\Katy Perry - Smile.wav

峰值电平 100.0 %
抓取速度 3.8 X
范围质量 99.9 %
复制 CRC 4A33D154
复制成功

没有错误发生

状态报告结尾

==== 记录校验日志 85F8A3F25B1146EF20FAA96A619C6EABD230A5321F4D8EEBCC4FF248488843D9 ====





专辑为自购,压缩包有封面,碟片的扫描图片。



链接:包年会员可查看
 
 
由于百度网盘原因,易导致资源失效,您可以在页面上提交失效申报,我们尽量修复!
网易&QQ音乐文件解锁 /