Coldplay
















74c08abec66cf6a04e0c7437baff77a.jpg (233.38 KB, 下载次数: 0)

下载附件



6天前 上传














1.jpg (149.95 KB, 下载次数: 0)

下载附件



6天前 上传














2.jpg (150.28 KB, 下载次数: 0)

下载附件



6天前 上传














3.jpg (152.54 KB, 下载次数: 0)

下载附件



6天前 上传














4.jpg (152.1 KB, 下载次数: 0)

下载附件



6天前 上传










专辑介绍:

完整收录布宜诺斯艾利斯的最终场演唱会实况,回顾出道至今的排行畅销代表作品!

成军届满20週年的超级天团Coldplay,不仅散发无可匹敌的摇滚劲道,总是灌输满满正面能量地用爱包容一切,提醒人们不要放弃追寻梦想,在低潮的时候,让Coldplay陪你渡过!陆续送上“降落伞Parachutes"(2000)、“玩过头A Rush Of Blood To The Head"(2002)、“XY密码X&Y"(2005)、“玩酷人生Viva La Vida Or Death And All His Friends"(2008)、“彩绘人生Mylo Xyloto"(2011)、“鬼故事Ghost Stories"(2014)、“梦过头A Head Full of Dreams"(2015)等7张录音室专辑,共累积7座葛莱美奖+9座全英音乐奖肯定,全球破亿销售,Coldplay向下个20年的未来洒下缤纷色彩,继续展开音乐冒险旅程,绽放无限精彩的可能!

宣传荣登超过90国iTunes榜冠军的“梦过头A Head Full of Dreams"专辑,Coldplay自2016年3月起跑至2017年11月止,超过1年半的时间举办全球巡迴演唱会,跑了包括台湾在内31个国家、76个城市,共进行114场演出,缔造门票全数售罄的突破5亿2300万美金票房,吸引超过550万个人次到场朝盛,名列音乐史上前三大规模巡演纪录!!

此双CD特别挑选收录2017年11月15日在阿根廷布宜诺斯艾利斯举办的最终场演唱会实况,回顾出道至今的排行畅销代表作品!包括:凭藉人因梦想而伟大的巡演最佳主题歌「A Head Full Of Dreams」当开场,接下来全场引吭高歌同唱「Yellow」,此曲不仅是打开Coldplay国际市场的关键,更入选Pitchfork【2000年代500首顶尖歌曲】、NME【过去15年代最棒的150首歌】,登记英国金榜殿军;取样已故流行才子Peter Allen金曲「I Go To Rio」的「Every Teardrop Is A Waterfall」,提名葛莱美『最佳摇滚演出』和『最佳摇滚歌曲』奖项;挺进英国前十强的「The Scientist」,被选入滚石杂志【2000年代百大歌曲】、NME【过去15年最棒的150首歌】名单;曾是【少年PI的奇幻漂流】电视广告宣传曲「Paradise」,登上英国金榜冠军位置;滚石杂志「一首货真价实回归原形歌曲」的「Magic」,一推出即荣登56国iTunes榜冠军;滚石杂志【史上500首经典歌曲】的「Clocks」,抱回葛莱美『年度唱片』奖座肯定;美国狂卖200万张,攀入流行、成人抒情、舞曲、摇滚各榜的「Hymn For The Weekend」;登记英国金榜殿军、荣登Q和NME的【年度百大单曲】票选名单的「Fix You」;全球狂销710万张,拿下葛莱美『年度歌曲』和『最佳流行重唱和团体演出』礼讚的「Viva La Vida」;霸佔美国舞曲和另类摇滚双榜冠军,充满Disco Funk跃动舞韵的「Adventure Of A Lifetime」;贴心的Coldpla还特别翻唱阿根廷当地叱吒80-90年代三人团Soda Stereo的经典「De Musica Ligera」;坐上英国金榜亚军,赢取葛莱美『最佳摇滚重唱和团体演出』的「In My Place」;与电音界双霸天The Chainsmokers齐力拱出神曲「Something Just Like This」,雄踞英美两地舞曲榜冠军,歌词MV仅24小时即突破900万次点阅率,强势打破YouTube史上单日MV观看数纪录;邀来英年早逝百大DJ Avicii参与製作,融解Progressive House于充满活力的EDM风格裡头,创下iTunes上架不到24小时即拿下87国冠军纪录的「A Sky Full Of Stars」;最后以「Up&Up」当结尾,让所有曾亲临现场的朋友再次回味感动,让没机会朝圣的朋友可以彻底感受那份满点嗨度与感动!




专辑曲目:

CD1:

A Head Full Of Dreams (Live In Buenos Aires)
Yellow (Live In Buenos Aires)
Every Teardrop Is A Waterfall (Live In Buenos Aires)
The Scientist (Live In Buenos Aires)
God Put A Smile Upon Your Face (Live In Buenos Aires)
Paradise (Live In Buenos Aires)
Always In My Head (Live In Buenos Aires)
Magic (Live In Buenos Aires)
Everglow (Live In Buenos Aires)
Clocks (Live In Buenos Aires)
Midnight (Live In Buenos Aires)
Charlie Brown (Live In Buenos Aires)



CD2:

Hymn For The Weekend (Live In Buenos Aires)
Fix You (Live In Buenos Aires)
Viva La Vida (Live In Buenos Aires)
Adventure Of A Lifetime (Live In Buenos Aires)
De Musica Ligera (Live In Buenos Aires)
Colour Spectrum (Live In Buenos Aires)
In My Place (Live In Buenos Aires)
Amor Argentina (Live In Buenos Aires)
Something Just Like This (Live In Buenos Aires)
A Sky Full Of Stars (Live In Buenos Aires)
Up&Up (Live In Buenos Aires)
End Credits (Live In Buenos Aires)






CD1:

Exact Audio Copy V1.5 from 20. February 2020

EAC 抓取日志文件从2. 一月 2021, 21:06

Coldplay / Live in Buenos Aires disc1

使用驱动器:ASUS SDRW-08D2S-U Adapter: 1ID: 0

读取模式 : 可靠Secure
使用精确流 : 是
清空音频缓存 : 是
使用 C2 指示器 : 否

读取偏移校正: : 0
读取 Lead-In 和 Lead-Out : 否
用静音填充抓取中丢失偏移的采样 : 是
去除首尾静音块 : 否
在CRC 计算中使用了空样本 : 是
已用接口 : Win NT 及 2000 本地 Win32 接口

所用输出模式: : 内部 WAV 函数
样本格式 : 44.100 Hz; 16 Bit; 立体声


已抓取 CD 的 TOC

音轨 | 起始 | 长度 |起始扇区|结束扇区
--------------------------------------------
1 |0:00.00 |4:59.09 | 0 |22433
2 |4:59.09 |5:50.35 |22434 |48718
3 | 10:49.44 |4:04.23 |48719 |67041
4 | 14:53.67 |6:28.45 |67042 |96186
5 | 21:22.37 |4:34.04 |96187 | 116740
6 | 25:56.41 |6:59.28 | 116741 | 148193
7 | 32:55.69 |3:41.15 | 148194 | 164783
8 | 36:37.09 |4:45.63 | 164784 | 186221
9 | 41:22.72 |4:55.28 | 186222 | 208374
10 | 46:18.25 |4:20.15 | 208375 | 227889
11 | 50:38.40 |1:45.51 | 227890 | 235815
12 | 52:24.16 |4:44.32 | 235816 | 257147


范围状态及错误

已选择范围

文件名 C:\Users\888\Desktop\Coldplay - Live in Buenos Aires disc1.wav

峰值电平 100.0 %
抓取速度 4.5 X
范围质量 100.0 %
复制 CRC ADA54805
复制成功

没有错误发生

状态报告结尾

==== 记录校验日志 41A2BB05F02AFBE8ABB5BCF6EF4A6D7CFFF4DBC219740858B43ACE607CEF123B ====






CD2:

Exact Audio Copy V1.5 from 20. February 2020

EAC 抓取日志文件从2. 一月 2021, 21:25

Coldplay / Live in Buenos Aires disc2

使用驱动器:ASUS SDRW-08D2S-U Adapter: 1ID: 0

读取模式 : 可靠Secure
使用精确流 : 是
清空音频缓存 : 是
使用 C2 指示器 : 否

读取偏移校正: : 0
读取 Lead-In 和 Lead-Out : 否
用静音填充抓取中丢失偏移的采样 : 是
去除首尾静音块 : 否
在CRC 计算中使用了空样本 : 是
已用接口 : Win NT 及 2000 本地 Win32 接口

所用输出模式: : 内部 WAV 函数
样本格式 : 44.100 Hz; 16 Bit; 立体声


已抓取 CD 的 TOC

音轨 | 起始 | 长度 |起始扇区|结束扇区
--------------------------------------------
1 |0:00.00 |5:02.71 | 0 |22720
2 |5:02.71 |5:27.35 |22721 |47280
3 | 10:30.31 |4:11.05 |47281 |66110
4 | 14:41.36 |5:06.41 |66111 |89101
5 | 19:48.02 |6:09.23 |89102 | 116799
6 | 25:57.25 |1:57.57 | 116800 | 125631
7 | 27:55.07 |4:37.60 | 125632 | 146466
8 | 32:32.67 |5:16.15 | 146467 | 170181
9 | 37:49.07 |4:04.18 | 170182 | 188499
10 | 41:53.25 |4:36.27 | 188500 | 209226
11 | 46:29.52 |8:45.53 | 209227 | 248654
12 | 55:15.30 |2:03.18 | 248655 | 257897


范围状态及错误

已选择范围

文件名 C:\Users\888\Desktop\Coldplay - Live in Buenos Aires disc2.wav

峰值电平 100.0 %
抓取速度 3.9 X
范围质量 99.9 %
复制 CRC 850595B9
复制成功

没有错误发生

状态报告结尾

==== 记录校验日志 74BC3FA3D2A3EDD599DD181D8F81AC9AE09E3DB9095ACC7CEDD833B9FF76080C ====







专辑为自购,压缩包有封面,碟片的扫描图片。









链接:包年会员可查看
 
 
由于百度网盘原因,易导致资源失效,您可以在页面上提交失效申报,我们尽量修复!
网易&QQ音乐文件解锁 /