The Wanted
















微信截图_20221124132328.jpg (181.93 KB, 下载次数: 0)

下载附件



8小时前 上传














微信截图_20221124132341.jpg (146.69 KB, 下载次数: 0)

下载附件



8小时前 上传










专辑介绍:

《Word of Mouth》是来自英国的团体The Wanted的第三张录音室专辑,于2013年11月5日发行。




专辑曲目:

1 We Own the Night
2 In the Middle
3 Running Out of Reasons
4 I Found You
5 Show Me Love (America)
6 Walks Like Rihanna
7 Summer Alive
8 Glad You Came
9 Glow In the Dark
10 Demons
11 Could This Be Love
12 Everybody Knows
13 Love Sewn
14 If We're Alright
15 Drunk On Love
16 Heartbreak Story








Exact Audio Copy V1.3 from 2. September 2016

EAC 抓取日志文件从17. 四月 2017, 13:48

The Wanted / Word of Mouth

使用驱动器:ASUS SDRW-08D2S-U Adapter: 1ID: 0

读取模式 : 可靠Secure
使用精确流 : 是
清空音频缓存 : 是
使用 C2 指示器 : 否

读取偏移校正: : 6
读取 Lead-In 和 Lead-Out : 是
用静音填充抓取中丢失偏移的采样 : 是
去除首尾静音块 : 否
在CRC 计算中使用了空样本 : 是
已用接口 : Win NT 及 2000 本地 Win32 接口

所用输出模式: : 内部 WAV 函数
样本格式 : 44.100 Hz; 16 Bit; 立体声


已抓取 CD 的 TOC

音轨 | 起始 | 长度 |起始扇区|结束扇区
--------------------------------------------
1 |0:00.00 |3:26.36 | 0 |15485
2 |3:26.36 |3:13.61 |15486 |30021
3 |6:40.22 |3:46.58 |30022 |47029
4 | 10:27.05 |3:59.67 |47030 |65021
5 | 14:26.72 |3:27.69 |65022 |80615
6 | 17:54.66 |3:22.11 |80616 |95776
7 | 21:17.02 |3:05.07 |95777 | 109658
8 | 24:22.09 |3:19.14 | 109659 | 124597
9 | 27:41.23 |3:35.15 | 124598 | 140737
10 | 31:16.38 |3:14.10 | 140738 | 155297
11 | 34:30.48 |3:08.25 | 155298 | 169422
12 | 37:38.73 |3:39.35 | 169423 | 185882
13 | 41:18.33 |4:23.69 | 185883 | 205676
14 | 45:42.27 |3:40.67 | 205677 | 222243
15 | 49:23.19 |3:23.58 | 222244 | 237526
16 | 52:47.02 |2:58.62 | 237527 | 250938


范围状态及错误

已选择范围

文件名 C:\Users\磊\Desktop\The Wanted - Word of Mouth.wav

可疑位置 0:55:45

峰值电平 100.0 %
抓取速度 4.8 X
范围质量 99.9 %
复制 CRC CE4D7AE5
复制结束

没有错误发生

状态报告结尾

---- CUETools DB Plugin V2.1.6








试听曲目:Walks Like Rihanna







链接:包年会员可查看
 
 
由于百度网盘原因,易导致资源失效,您可以在页面上提交失效申报,我们尽量修复!
网易&QQ音乐文件解锁 /