One Direction
















微信截图_20221124143144.jpg (176.81 KB, 下载次数: 0)

下载附件



7小时前 上传














微信截图_20221124143152.jpg (138.92 KB, 下载次数: 0)

下载附件



7小时前 上传










专辑介绍:

把不留白的青春代回家

最强偶像世代单向组合

最新专辑 青春满屋

◎仅以首张专辑即席捲17国排行冠军,超过1200万张专辑/单曲销量,偶像接班天团2012满载活力最新大碟

◎2012年MTV音乐奖最大赢家『最佳流行音乐录影带』、『最佳新人音乐录影带』、『最值得分享音乐录影带』三项大奖,及2012年全美音乐奖「最佳新人」、「最佳流行专辑」、「最佳流行乐团」三项提名

◎〈Live While We’re Young〉不到24小时攻佔iTunes逾50国冠军,成为史上预购速度最快超级单曲,空降英美季军单曲

出道不到一年,持续打破不思议记录的单向组合,将BBC Radio 1 Teen Awards的「最佳英国专辑」、「最佳英国音乐演出」、「最佳英国单曲(One Thing)」三大奖全数抱回,2012年甫出炉的全美音乐奖名单,一口气入围「最佳新人」、「最佳流行/摇滚专辑」、「最佳流行/摇滚乐团/重唱」重要奖项的1 世代,稳拿优质男孩团体的宝座!已在全球累积超过1200万张专辑/单曲销量,美国《哈芬登邮报》更直称「2012是单向组合年!」在伦敦奥运闭幕式热力开唱掀起高潮,令世界各地乐迷疯狂著迷的第1焦点,就连「E!Online」、「时人杂志」、MTV等媒体,全给予高度肯定和评价!

首张专辑《Up All Night》不仅席捲全球17国排行冠军,创下史上首张专辑空降美国告示牌冠军的英国团体纪录!首张《Up All Night The Live Tour》演唱会DVD,同样以不凡气势,登顶27国排行首位!成名主打〈What Makes You Beautiful〉,在英国iTunes发行15分钟内直衝冠军,也写下英国2011整年度首週销量最高单曲成绩,在YouTube大破2亿700万浏览次数,全美获颁三白金认证,并且夺下青少年票选大奖「最佳夏日单曲」,一举夺得MTV音乐奖三项大奖,成为最大赢家!而在家乡的全英音乐奖上,也成功击退强敌,拿下「最佳英国单曲」的至高殊荣肯定。

趁著人气红不让之势推出第二张大碟《Take Me Home》,请到曾为席琳狄翁、布兰妮、亚瑟小子、贾斯汀比伯等天王天后制作的梦幻组合联手操盘!首波主打〈Live While We’re Young〉,抢先于iTunes推出EP预购活动,不到24小时攻佔全球逾50国冠军,成为史上预购速度最快的超级单曲!由〈What Makes You Beautiful〉黄金团队再次掌舵,满载充沛青春活力,同时空降英美两地排行季军;紧接著快意无限的〈Kiss You〉,继续提供欢乐因子;以简单Acoustic吉他伴奏的〈Little Things〉,散发清新的民谣风味;〈C'mon, C'mon〉编织最跳的电子线条;再度响起悦耳吉他声的〈Last First Kiss〉、外加漂亮真假音转换之〈Change My Mind〉,替抒情曲目再添吸引人的旋律;怦然心动的〈Heart Attack〉,摇摆出Funky频率;有了Queen经典〈We Will Rock You〉灵感的〈Rock Me〉,挑战摇滚的界线;又是摇滚和电子完美结合的〈I Would〉,很有衝入流行榜的实力;弦乐柔美辅佐〈They Don't Know About Us〉,撩起澎湃激昂的张力!单向组合藉由此张专辑,彻底展现接班天团的气势!





专辑曲目:

Live While We're Young
Kiss You
Little Things
C'mon, C'mon
Last First Kiss
Heart Attack
Rock Me
Change My Mind
I Would
Over Again
Back For You
They Don't Know About Us
Summer Love







Exact Audio Copy V1.6 from 23. October 2020

EAC 抓取日志文件从24. 十一月 2022, 1:22

One Direction / Take Me Home

使用驱动器:ASUS SDRW-08D1S-U Adapter: 1ID: 0

读取模式 : 可靠Secure
使用精确流 : 是
清空音频缓存 : 是
使用 C2 指示器 : 否

读取偏移校正: : 0
读取 Lead-In 和 Lead-Out : 否
用静音填充抓取中丢失偏移的采样 : 是
去除首尾静音块 : 否
在CRC 计算中使用了空样本 : 是
已用接口 : Win NT 及 2000 本地 Win32 接口

所用输出模式: : 内部 WAV 函数
样本格式 : 44.100 Hz; 16 Bit; 立体声


已抓取 CD 的 TOC

音轨 | 起始 | 长度 |起始扇区|结束扇区
--------------------------------------------
1 |0:00.00 |3:20.14 | 0 |15013
2 |3:20.14 |3:04.23 |15014 |28836
3 |6:24.37 |3:39.48 |28837 |45309
4 | 10:04.10 |2:46.09 |45310 |57768
5 | 12:50.19 |3:24.44 |57769 |73112
6 | 16:14.63 |2:57.60 |73113 |86447
7 | 19:12.48 |3:21.57 |86448 | 101579
8 | 22:34.30 |3:33.55 | 101580 | 117609
9 | 26:08.10 |3:22.15 | 117610 | 132774
10 | 29:30.25 |3:03.33 | 132775 | 146532
11 | 32:33.58 |3:00.09 | 146533 | 160041
12 | 35:33.67 |3:21.52 | 160042 | 175168
13 | 38:55.44 |3:28.29 | 175169 | 190797


范围状态及错误

已选择范围

文件名 D:\CD 抓取\One Direction - Take Me Home.wav

峰值电平 99.8 %
抓取速度 3.2 X
范围质量 99.9 %
复制 CRC 8EE9D5F8
复制成功

没有错误发生

状态报告结尾

==== 记录校验日志 216E493A0E943DC91FFEE6482A57BF5CA38CF30528B3B0DCD518E41B50C8DBAD ====






试听曲目:Live While We're Young







链接:包年会员可查看
 
 
由于百度网盘原因,易导致资源失效,您可以在页面上提交失效申报,我们尽量修复!
网易&QQ音乐文件解锁 /