One Direction
















微信截图_20221124144801.jpg (212.59 KB, 下载次数: 0)

下载附件



7小时前 上传














微信截图_20221124144810.jpg (136.68 KB, 下载次数: 0)

下载附件



7小时前 上传









专辑介绍:

◎五年屡创奇迹最强男孩天团,暂时休团前全力打造第五张再创纪录最新大碟

◎90国iTunes冠军〈Drag Me Down〉,MV冲破1亿4千万次点阅,并创下全球Spotify发行当天点听最高纪录,及美国男孩团体首周最卖座数字单曲纪录

◎iTunes专辑预购抢下首发24小时登顶80国冠军

◎另收录iTunes 61国冠军〈Perfect〉,空降爱尔兰冠军+英国亚军;及iTunes 70国冠军〈Infinity〉

五年时光转眼飞逝而过,世代交替最强男孩天团单向组合,在极短时间内,缔造无数歌坛奇迹与超高分贝尖叫声!奈尔、哈利、路易、连恩、赞恩五帅连手出击下,专辑+单曲的全球销售冲破5000万张门槛,走遍世界多国,曾于750万的乐迷面前劲歌热舞!2014年的全新专辑《FOUR》同时抢下英美两地排行冠军,惊创公告牌58年来「史上唯一连续拥有四张空降冠军专辑的团体」终极纪录,仅次于泰勒斯威夫特的〈1989〉,登记2014年全球最热销专辑亚军,同时摘取全英卖座首席!日本强势夺取首张公信榜冠军之外,还秒杀全球100国的iTunes专辑榜冠军,全球突破320万的总销售门槛、2930万的流媒体爆量点击率!气势锐不可挡的1世代,延烧到2015年,奖座拿到手软,入围青少年选择奖(Teen Choice Awards)多达十个奖项,风光抱走八座喝采,也是公告牌的「顶尖巡演艺人」和「顶尖重唱/团体」两大奖的受领团队,提名全美音乐「年度艺人」、「最受欢迎重唱或团体」的荣耀肯定!英国星期日泰晤士报统计,单向组合快速攀升「30岁以下全英最富有的音乐家」名单亚军,立足在线流媒体Spotify「史上第14位,全球突破十亿人次收听艺人」、「继酷玩乐团,第二组英伦团体全球突破十亿人次收听」傲人纪录!

2015年3月26日,Zayn Malik无预警宣告退出单向组合,其他四位成员交出第五张作品《Made In The A.M.》之后,将在2016年暂时休团,各组员单飞不解散的衝刺个人事业!一次动员流行领域的英美两地的四大名师Jesse Shatkin( Kelly Clarkson、P!nk、Sia)+John Ryan(Pitbull、Nick Jonas、Olly Murs)+Julian Bunetta(Fifth Harmony、Chris Brown、Jason Derulo)+Jamie Scott(Enrique Iglesias、Nicole Scherzinger、Little Mix)联合掌舵,四帅也交出参与创作的歌谣。首波主打〈Drag Me Down〉,沦陷90国iTunes榜冠军,成为英国第四首冠军曲,初次攻下法国和澳大利亚流行榜第一名位置,美国直取季军席次,首週以34万9千次下载量,登上告示牌数位单曲榜冠军,刷新史上男孩团体首週最卖座数字单曲成绩,同时开出全球首週50万数字+1770万的流媒体量!再接再厉的〈Perfect〉,表态不能当位全心託付的伴侣,却可以当位完美的情人,率先空降英国金榜亚军;搭配专辑预购释出的抒情小品〈Infinity〉,拼上美国数字榜TOP9位置;仅以钢琴和弦乐陪衬的〈If I Could Fly〉,美的令人颤动不已;复古Funky Soul与Synthpop混搭的〈Never Enough〉,愉悦摇摆的欢乐起舞;民谣吉他弹奏〈I Want To Write You A Song〉,提供清新迷人的优质好歌。

慢板情歌佔了大篇幅的新专辑,是单向组合对乐迷的真情告白、由衷感谢,一起见证创造音乐奇蹟的历程,珍藏单向组合永不褪色的青春记忆!







专辑曲目:

01. Hey Angel
02. Drag Me Down
03. Perfect
04. Infinity
05 .End of the Day
06. If I Could Fly
07. Long Way Down
08. Never Enough
09.Olivia
10. What a Feeling
11. Love You Goodbye
12. I Want to Write You a Song
13. History
14. Temporary Fix
15. Walking in the Wind
16. Wolves
17. A.M.








Exact Audio Copy V1.3 from 2. September 2016

EAC 抓取日志文件从10. 四月 2017, 19:55

One Direction / Made In The A.M.

使用驱动器:Optiarc DVD RW AD-7560A Adapter: 1ID: 0

读取模式 : 可靠Secure
使用精确流 : 是
清空音频缓存 : 是
使用 C2 指示器 : 否

读取偏移校正: : 6
读取 Lead-In 和 Lead-Out : 否
用静音填充抓取中丢失偏移的采样 : 是
去除首尾静音块 : 否
在CRC 计算中使用了空样本 : 是
已用接口 : Win NT 及 2000 本地 Win32 接口

所用输出模式: : 内部 WAV 函数
样本格式 : 44.100 Hz; 16 Bit; 立体声


已抓取 CD 的 TOC

音轨 | 起始 | 长度 |起始扇区|结束扇区
--------------------------------------------
1 |0:00.00 |4:00.00 | 0 |17999
2 |4:00.00 |3:12.09 |18000 |32408
3 |7:12.09 |3:50.25 |32409 |49683
4 | 11:02.34 |4:09.36 |49684 |68394
5 | 15:11.70 |3:14.73 |68395 |83017
6 | 18:26.68 |3:50.24 |83018 | 100291
7 | 22:17.17 |3:12.12 | 100292 | 114703
8 | 25:29.29 |3:33.33 | 114704 | 130711
9 | 29:02.62 |2:57.73 | 130712 | 144059
10 | 32:00.60 |3:20.40 | 144060 | 159099
11 | 35:21.25 |3:16.70 | 159100 | 173869
12 | 38:38.20 |2:59.01 | 173870 | 187295
13 | 41:37.21 |3:07.32 | 187296 | 201352
14 | 44:44.53 |2:55.01 | 201353 | 214478
15 | 47:39.54 |3:22.48 | 214479 | 229676
16 | 51:02.27 |4:01.40 | 229677 | 247791
17 | 55:03.67 |3:29.03 | 247792 | 263469


范围状态及错误

已选择范围

文件名 C:\Users\磊\Desktop\One Direction - Made In The A.M..wav

峰值电平 99.8 %
抓取速度 3.3 X
范围质量 99.8 %
复制 CRC 87B02ED9
复制成功

没有错误发生


AccurateRip 摘要

音轨1精确地校准抓取35)[6B1D4194](AR v2)
音轨2精确地校准抓取36)[F0BB668A](AR v2)
音轨3精确地校准抓取36)[C900E67F](AR v2)
音轨4精确地校准抓取35)[D32B7F02](AR v2)
音轨5精确地校准抓取36)[4E0FD465](AR v2)
音轨6精确地校准抓取35)[CD1F5A9E](AR v2)
音轨7精确地校准抓取35)[F917A438](AR v2)
音轨8精确地校准抓取35)[60B0E290](AR v2)
音轨9精确地校准抓取35)[375A2E66](AR v2)
音轨 10精确地校准抓取35)[14EB19FD](AR v2)
音轨 11精确地校准抓取35)[70A9AF37](AR v2)
音轨 12精确地校准抓取35)[AC909823](AR v2)
音轨 13精确地校准抓取35)[19D2C92A](AR v2)
音轨 14精确地校准抓取35)[25DB0056](AR v2)
音轨 15精确地校准抓取35)[656C9BA9](AR v2)
音轨 16精确地校准抓取35)[233031D8](AR v2)
音轨 17精确地校准抓取35)[F1B115AF](AR v2)

所有音轨精确校准抓取

状态报告结尾

---- CUETools DB Plugin V2.1.6








试听曲目:Drag Me Down







链接:包年会员可查看
FLAC 中国允许韩国电影 11/24
One Direction
 
 
由于百度网盘原因,易导致资源失效,您可以在页面上提交失效申报,我们尽量修复!
网易&QQ音乐文件解锁 /