Justin Bieber
















02.jpg (105.83 KB, 下载次数: 0)

下载附件



3小时前 上传














03.jpg (235.35 KB, 下载次数: 0)

下载附件



3小时前 上传










专辑介绍:

宝贝男孩 小贾斯汀

*12岁成为Youtube传奇;16岁创造告示牌奇蹟*

*流行史上第一位,尚未出道就拿下7首告示牌排行单曲*

*一次收集二张专辑:2009迷你专辑『My World』+2010全新专辑『My World 2.0』所有精彩曲目*

*收录嘻哈巨星Ludacris跨刀"Baby"、"One Less Lonely Girl"、"One Time"、"Favorite Girl"、"Love Me”等*

以下这些问题,欢迎你上网搜寻。

问题一: 谁让乐坛天王亚瑟小子, 贾斯汀展开签约争夺战?

问题二: 谁能还没发片, 就拥有7首告示牌排行单曲?

问题三: 谁获得美国总统欧巴马邀请,到白宫圣诞晚会演唱?

答案: 以上皆是, Justin Bieber 小贾斯汀。

事实上,三年前、亚瑟小子跟贾斯汀也是友人的推荐下,纷纷在Youtube搜寻这个名字,看到12岁的小贾斯汀参加镇上歌唱比赛演唱Alicia Keys,还有吉他自弹自唱Kanye West作品,以及打鼓、舞蹈样样精通的演出画面。浏览之后,两位乐坛天王简直是乐坏了,分别邀约小贾斯汀加入旗下厂牌,结果亚瑟小子胜出,签下了这位全美国人心中的宝贝男孩。

接下来,小贾斯汀可没让亚瑟小子失望。2009年以不到16岁的年纪,连续发表四首单曲,一口气全部登上告示牌,成为流行音乐史上第一位歌手在首张专辑发行前就拥有4首TOP40单曲的世界纪录;一次在纽约购物中心举行的签唱会,涌进三千多名乐迷疯狂追逐,险些酿成暴动;圣诞节时,受邀为美国总统欧巴马在白宫的演出,成为媒体焦点;接著,参加纽约跨年演唱会,受邀担任葛莱美奖颁奖人,担任国民小公主泰勒丝巡迴演唱会嘉宾,以及于海地赈灾义唱单曲"We Are The World"中演唱。Justin Bieber所到之处,尖叫声与掌声此起彼落,美国传媒更将他惊人魅力称为「小贾斯汀狂热/Bieber Mania」,以斗大标题描述这个现象:「男人让开,我们要16岁的宝贝男孩!」

2010年春季,小贾斯汀Justin Bieber进军国际,将2009年11月在美国发行的迷你专辑『My World』,与2010年3月底于全美上市的最新专辑『My World 2.0』合併发表为一张全新【My Worlds】超值专辑。专辑由Usher、L.A. Reid与製作过Rihanna的"Umbrella",Beyoncé的"Single Ladies (Put A Ring On It)"等畅销曲的葛莱美奖製作拍档The Dream、Tricky Stewart掌舵製作大任。专辑中包括与嘻哈巨星Ludacris所合唱的流行单曲"Baby",发行首週抢攻全美热门单曲榜第5名与英国金榜第3名,以及"One Less Lonely Girl"[#16]、"One Time"[#17]、"Favorite Girl"[#26]、"Love Me"[#37/*取样The Cardigans冠军曲"Lovefool"]等4首打进全美热门单曲榜TOP40的畅销曲,以及与Usher合唱的单曲"First Dance",融合了流行电子乐与节奏蓝调元素的单曲"Never Let You Go"、流行舞曲"Somebody To Love"、与牙买加歌手Sean Kingston合作的动感雷鬼派对热歌"Eenie Meenie"等多首佳作。

歌唱、舞蹈、吉他、打鼓、无师自通,3年前在加拿大过著贫困的生活,3年后在镁光灯下过著全新人生,不同于天王天后对于乐坛变迁的感慨,小贾斯汀感谢新世界的到来,让他有机会能成为乐坛的宝贝。







专辑曲目:

01 One Time
02 Favorite Girl
03 Down To Earth
04 Bigger
05 One Less Lonely Girl
06 First Dance - Justin Bieber, Usher
07 Love Me
08 Common Denominator
09 Baby - Justin Bieber, Ludacris
10 Somebody To Love
11 Stuck In The Moment
12 U Smile
13 Runaway Love
14 Never Let You Go
15 Overboard - Justin Bieber, Jessica Jarrell
16 Eenie Meenie - Justin Bieber, Sean Kingston
17 Up
18 That Should Be Me











Exact Audio Copy V0.99 prebeta 5 from 4. May 2009

EAC 抓取日志文件从6. 五月 2010, 19:17

Justin Bieber / My Worlds

使用驱动器:PIONEER DVD-RWDVR-118L Adapter: 0ID: 0

读取模式 : 保护
使用精确流 : 是
废除音频缓冲 : 是
使用 C2 指针 : 否

读取偏移校正 : 2130
读取 Lead-In 和 Lead-Out : 否
用静音填充抓取中丢失偏移的采样 : 是
去除首尾静音块 : 否
在 CRC 计算中使用了空样本 : 是
已用接口 : Win NT 及 2000 本地 Win32 接口

所用输出格式 : 内部 WAV 函数
样本格式 : 44.100 Hz;16 Bit;立体声


被抓轨 CD 的 TOC

音轨 | 开始 | 长度 | 起始扇区 | 结尾扇区
--------------------------------------------------
1|0:00.00 |3:35.65 | 0| 16189
2|3:35.65 |4:16.60 | 16190| 35449
3|7:52.50 |4:05.57 | 35450| 53881
4| 11:58.32 |3:17.60 | 53882| 68716
5| 15:16.17 |3:49.08 | 68717| 85899
6| 19:05.25 |3:42.25 | 85900|102574
7| 22:47.50 |3:13.35 |102575|117084
8| 26:01.10 |4:10.41 |117085|135875
9| 30:11.51 |3:33.73 |135876|151923
10| 33:45.49 |3:40.69 |151924|168492
11| 37:26.43 |3:42.72 |168493|185214
12| 41:09.40 |3:16.68 |185215|199982
13| 44:26.33 |3:32.43 |199983|215925
14| 47:59.01 |4:24.30 |215926|235755
15| 52:23.31 |4:11.14 |235756|254594
16| 56:34.45 |3:22.47 |254595|269791
17| 59:57.17 |3:54.70 |269792|287411
18| 63:52.12 |3:52.55 |287412|304866


范围状态及错误

已选择范围

文件名 D:\Justin Bieber - My Worlds.wav

峰值电平 99.8 %
范围质量 100.0 %
复制 CRC AE6224EE
复制成功

没有错误发生












试听曲目:Baby









链接:包年会员可查看
 
 
由于百度网盘原因,易导致资源失效,您可以在页面上提交失效申报,我们尽量修复!
网易&QQ音乐文件解锁 /