The Wanted
















微信截图_20221124131731.jpg (271.71 KB, 下载次数: 0)

下载附件



8小时前 上传














微信截图_20221124131740.jpg (104.72 KB, 下载次数: 0)

下载附件



8小时前 上传









专辑介绍:

*偶像改朝换代!2011全英音乐奖提名、英国当今最爱超人气男团 *全球单曲销售突破4百万张,专辑跨过1百万张门坎,脸书150万名粉丝关注,Vevo/YouTube浏览率总计超过1亿4千万人次 *首度进军美国,精选前两张专辑代表单曲,再加收两首全新歌曲《Chasing The Sun》、《Satellite》 2012年4月24日,英国超人气男团The Wanted首度进军美国,跨海发行同名EP《The Wanted》,此张迷你专辑里的7首歌曲不仅精选了先前两张专辑《The Wanted》(2010年)、《Battleground》(2011年)中的5首代表单曲《Glad You Came》(全英双周冠军+美国No.3)、《All Time Low》(UK冠军/入围2011年全英音乐奖最佳单曲提名)、《Lightning》(UK亚军)、《Heart Vacancy》(UK亚军)、《Gold Forever》(全英No.3),更加收《Chasing The Sun》与《Satellite》两首新歌。为了全球各地喜爱The Wanted的乐迷,特别企划推出这张迷你专辑的加值版本,所收录的歌曲更从7首增加为10首,堪称是一张记录The Wanted出道至今歌唱历程的精选特辑。 成功培植偶像女团The Saturdays的Jayne Collins经由征选方式,一手促成平均年龄仅21岁的帅气小子合体The Wanted,他们带来感染力超强的流行曲风、坚固的摇滚情谊与青春正盛的迷人丰采,为新世纪的流行音乐注入清新的气息,也满足了乐迷对优质男孩团体的渴望! 组团未满三年,至今全球单曲累积销售已突破4百万张,专辑则跨过1百万张门坎,他们的脸书有150万名粉丝不时关注,拥有满载的才华与自信,五个来自英国与爱尔兰的大男孩前进美国,果然不负众望交出一张漂亮的成绩单。点燃舞动节拍强打单曲《Glad You Came》的iTunes数位单曲销售量超过2百万张,在全美Top 40电台榜已蝉联三周冠军,创下自1997年以来首支男孩团体在此榜封王纪录,这首超级单曲更以告示牌流行单曲榜第三名成绩,一举超越由Take That所保持的英国男孩团体在美国的最佳排行纪录!全新单曲《Chasing The Sun》已经获选为即将于2012年暑假上映的动画电影《Ice Age 4: Continental Drift/冰川世纪4》的片尾曲。




专辑曲目:

Glad You Came
Chasing The Sun
All Time Low
Satellite
Lightning
Heart Vacancy
Gold Forever
Lose My Mind
Warzone
Rocket





Exact Audio Copy V1.6 from 23. October 2020

EAC 抓取日志文件从24. 十一月 2022, 2:10

The Wanted / The Wanted

使用驱动器:ASUS SDRW-08D1S-U Adapter: 1ID: 0

读取模式 : 可靠Secure
使用精确流 : 是
清空音频缓存 : 是
使用 C2 指示器 : 否

读取偏移校正: : 0
读取 Lead-In 和 Lead-Out : 否
用静音填充抓取中丢失偏移的采样 : 是
去除首尾静音块 : 否
在CRC 计算中使用了空样本 : 是
已用接口 : Win NT 及 2000 本地 Win32 接口

所用输出模式: : 内部 WAV 函数
样本格式 : 44.100 Hz; 16 Bit; 立体声


已抓取 CD 的 TOC

音轨 | 起始 | 长度 |起始扇区|结束扇区
--------------------------------------------
1 |0:00.00 |3:18.14 | 0 |14863
2 |3:18.14 |3:18.60 |14864 |29773
3 |6:36.74 |3:25.23 |29774 |45171
4 | 10:02.22 |3:02.43 |45172 |58864
5 | 13:04.65 |3:23.57 |58865 |74146
6 | 16:28.47 |3:43.09 |74147 |90880
7 | 20:11.56 |3:58.22 |90881 | 108752
8 | 24:10.03 |3:49.20 | 108753 | 125947
9 | 27:59.23 |3:38.26 | 125948 | 142323
10 | 31:37.49 |3:15.65 | 142324 | 157013


范围状态及错误

已选择范围

文件名 D:\CD 抓取\The Wanted - The Wanted.wav

峰值电平 99.8 %
抓取速度 4.1 X
范围质量 100.0 %
复制 CRC 822C3DA5
复制成功

没有错误发生

状态报告结尾

==== 记录校验日志 6C1FCCC91ED42CAD145426E167875A32482FE81B7528C1A92813727F0DD62E6B ====






试听曲目:Glad You Came






链接:包年会员可查看
FLAC 乌克兰与俄罗斯 11/24
Blue
FLAC 任贤齐转发的失踪案 11/24
The Wanted
FLAC 乌克兰与俄罗斯 11/24
One Direction
 
 
由于百度网盘原因,易导致资源失效,您可以在页面上提交失效申报,我们尽量修复!
网易&QQ音乐文件解锁 /