Avril Lavigne
















微信截图_20221124115045.jpg (198.58 KB, 下载次数: 0)

下载附件



10小时前 上传














微信截图_20221124115053.jpg (98.53 KB, 下载次数: 0)

下载附件



10小时前 上传










专辑介绍:

艾薇儿是个很清楚自己想要什麽的女孩。因此在她创作歌迷们期盼许久的第三张专辑「The Best Damn Thing」时,她的脑海中已经有了非常明确的目标:要让这张专辑很有趣。当艾薇儿在2004年为了她的上一张在全球创下八百万张销售佳绩的专辑「Under My Skin」巡迴表演的时候,这位在加拿大出生的庞克-流行劲妹发现她比较偏好表演速度与节奏较快的歌曲,于是,她决定要录制一张专辑,这张专辑要能捕捉到这种让她在舞台上尽情宣洩的衝劲十足、火力全开的超高能量。

「The Best Damn Thing」盛满了热腾腾的吉他演奏、信手拈来就让人琅琅上口的热闹副歌、强力流行朋克、以及叛逆的摇滚态度。这和调性较灰暗、内敛的「Under My Skin」专辑大相迳庭,而在一些像是直率、奔放、跟劈腿男友说掰掰的“Everything Back But You”之类的歌曲裡,艾薇儿兴致盎然地为她的歌词构思出虚构情节,而且就像她所说的,这次的歌词灵感不是「直接源自我的日记裡」。结果艾薇儿创造出这些收录在本张专辑中的作品,展现出她在创作以及歌唱方面日渐成长的足迹。从优美、有力的“I Can Do Better”(这是艾薇儿个人最偏爱的歌曲之一)到韧性跃动的第一首主打单曲“Girlfriend ”-这首歌曲出人意料之外地将嘻哈节拍与强而有力的副歌、拍手声以及女生团体风格的合唱结合在一起,又在其中注入朋克摇滚的改造-,再到情感盈溢的抒情曲“"Keep Holding On”─这首歌曲是艾薇儿受邀为20世纪福克斯公司的幻想/冒险片「龙骑士(Eragon)」所特别创作的─,都是最好的佐证。

拥有一双对于强劲、有吸引力的流行旋律特别敏锐而且训练有素的耳朵,艾薇儿因此可以积极参与「The Best Damn Thing」专辑的每一个创作阶段:从独立谱写自己的歌曲(「我在创作这张专辑裡的歌曲时,身边没有唱片公司的人来左右我的意见。」她特别强调,「我非常清楚我要什麽样的音乐。」),到选择制作人和合作伙伴,再到回到录音室裡一再琢磨吉他和鼓声,艾薇儿都亲自悉心参与,好确保这张专辑将成为她至今最棒的一张作品。这几年她的态度或许更圆融了些,但她仍是无与伦比、勇敢大胆的艺人。「The Best Damn Thing」展现出艾薇儿迈入新阶段后的生命,她已经走过愤世嫉俗的灰暗青少年时期,并且再度于聚光灯下昂首挺立,她已经准备好要尽情享受工作的乐趣、尽情摇滚、甚至尽情舞蹈。这就是-正如她在专辑标题中所说的-她所做过的最棒的事。





专辑曲目:

1. Girlfriend (Clean Edit)
2. I Can Do Better (Clean Edit)
3. Runaway
4. The Best Damn Thing
5. When You're Gone
6. Everything Back But You (Clean Edit)
7. Hot
8. Innocence
9. I Don't Have To Try
10. One Of Those Girls
11. Contagious
12. Keep Holding On
13. Alone





Exact Audio Copy V1.3 from 2. September 2016

EAC 抓取日志文件从22. 三月 2017, 16:58

Avril Lavigne / The Best Damn Thing

使用驱动器:Optiarc DVD RW AD-7560A Adapter: 1ID: 0

读取模式 : 可靠Secure
使用精确流 : 是
清空音频缓存 : 是
使用 C2 指示器 : 否

读取偏移校正: : 6
读取 Lead-In 和 Lead-Out : 否
用静音填充抓取中丢失偏移的采样 : 是
去除首尾静音块 : 否
在CRC 计算中使用了空样本 : 是
已用接口 : Win NT 及 2000 本地 Win32 接口

所用输出模式: : 内部 WAV 函数
样本格式 : 44.100 Hz; 16 Bit; 立体声


已抓取 CD 的 TOC

音轨 | 起始 | 长度 |起始扇区|结束扇区
--------------------------------------------
1 |0:00.00 |3:37.17 | 0 |16291
2 |3:37.17 |3:16.70 |16292 |31061
3 |6:54.12 |3:48.43 |31062 |48204
4 | 10:42.55 |3:10.30 |48205 |62484
5 | 13:53.10 |4:00.49 |62485 |80533
6 | 17:53.59 |3:02.68 |80534 |94251
7 | 20:56.52 |3:23.52 |94252 | 109528
8 | 24:20.29 |3:52.63 | 109529 | 126991
9 | 28:13.17 |3:17.65 | 126992 | 141831
10 | 31:31.07 |2:56.08 | 141832 | 155039
11 | 34:27.15 |2:10.42 | 155040 | 164831
12 | 36:37.57 |4:01.10 | 164832 | 182916
13 | 40:38.67 |3:12.59 | 182917 | 197375
14 | 46:23.51 |6:03.27 | 208776 | 236027


范围状态及错误

已选择范围

文件名 C:\Users\磊\Desktop\Avril Lavigne - The Best Damn Thing.wav

峰值电平 100.0 %
抓取速度 3.9 X
范围质量 99.9 %
复制 CRC C7DD5B00
复制成功

没有错误发生


AccurateRip 摘要

音轨1精确地校准抓取38)[A8ABA6C2](AR v2)
音轨2精确地校准抓取38)[77104467](AR v2)
音轨3精确地校准抓取38)[5C910507](AR v2)
音轨4精确地校准抓取38)[CD82D4CB](AR v2)
音轨5精确地校准抓取38)[CDD94A9E](AR v2)
音轨6精确地校准抓取38)[229D42BF](AR v2)
音轨7精确地校准抓取38)[3ADEC301](AR v2)
音轨8精确地校准抓取38)[7639E4F3](AR v2)
音轨9精确地校准抓取38)[91992FCF](AR v2)
音轨 10精确地校准抓取38)[E5E0E5D9](AR v2)
音轨 11精确地校准抓取38)[45F45A36](AR v2)
音轨 12精确地校准抓取38)[6C70F4F7](AR v2)
音轨 13精确地校准抓取37)[EE07EBF5](AR v2)

所有音轨精确校准抓取

状态报告结尾

---- CUETools DB Plugin V2.1.6






试听曲目:Hot







链接:包年会员可查看
FLAC 乐团简介 11/24
One Direction
 
 
由于百度网盘原因,易导致资源失效,您可以在页面上提交失效申报,我们尽量修复!
网易&QQ音乐文件解锁 /