Zedd
















微信截图_20221124131255.jpg (245.04 KB, 下载次数: 0)

下载附件



8小时前 上传














微信截图_20221124131306.jpg (209.02 KB, 下载次数: 0)

下载附件



8小时前 上传










专辑介绍:

2016年Billboard音乐大奖最佳舞曲/电子专辑

玩翻电音色彩 颠覆全球排行

★格莱美奖肯定、天王天后指定合作DJ/制作人,睽违三年全新大碟

★收录全美舞曲/电子榜冠军 新世代天后赛琳娜献声话题单曲"I Want You To Know"、加州人气新团Echosmith好评合作曲"Illusion"等11首排行力作

「有点像是设计华丽的太空船,在降落时改採弯曲速率,造成引擎超过负荷,濒临破碎解体的感觉。」这是知名音乐网站Stereogum对于Zedd的描述。出生于俄罗斯,在德国南方长大,本名Anton Zaslavski的Zedd从12岁就开始把玩钢琴及打鼓,多样化的音乐训练囊括了古典、爵士到后硬式摇滚、金属摇滚,在电音创作的经历中树立个人特色,他以细腻手法制作的舞曲,就像是充满了缤纷的色彩,炫染了全球乐坛,让纽约时报大讚「有非凡的才华」!他不光是风靡电子舞曲EDM界,如今更受到许多非电子舞曲乐迷的瞩目。

2010年Zedd在全球最大的EDM社群网站Beatport主办的两项大赛中崭露头角,夺下冠军宝座;2012年被女神卡卡/Lady Gaga钦点为「Born This Way世界巡迴演唱会」亚洲站的指定DJ,并顺利入主环球音乐旗下Interscope,同年发行首张专辑【 Clarity】,快速创造两首舞池神曲"Clarity"、"Stay The Night"在YouTube狂飙超过1亿人次沦陷,众多天王天后陆续指名邀歌;2014年以"Clarity"赢得格莱美奖「最佳舞曲录音」,接著在夏季为排行榜公主Ariana Grande跨刀制作"Break Free",轻鬆打入告示牌热门单曲榜Top4+全美双白金,爆棚的人气伴随著他力邀流行新世代天后Selena Gomez献声+共和世代主唱Ryan Tedder联手打造2015首支单曲"I Want You To Know"再造巅峰!横扫公告牌舞曲/电子榜冠军+全球34国iTunes冠军,话题合体MV在YouTube已经超越3000万人疯狂播放。

移动通信大厂T-Mobile在2015年宣布与Zedd签下代言合约,自3月起展开【True Colors】抢听派对,以不同的颜色主题设定并在全美10大城市进行首播,从加州约书亚树的橘色主题曲"Straight Into The Fire";于亚利桑那州凤凰城登场的黄色主题曲,绽放纯电音魔力的"Bumble Bee";与说唱歌手Logic+纽约电子摇滚乐团X Ambassadors跨界帮腔的黑色主题曲"Transmission"为旧金山著名地标之一恶魔岛;再到与加州人气新团Echosmith合作,代表蓝色的丹佛科罗拉多州的"Transmission"等,共11首歌各代表著Zedd不同音乐色彩,Zedd也感谢粉丝一路支持: 「感谢你,让我秀出我最真实的色彩。」






专辑曲目:

01 Addicted to a Memory
02 I Want You to Know
03 Beautiful Now
04 Transmission
05 Done With Love
06 True Colors
07 Straight Into the Fire
08 Papercut
09 Bumble Bee
10 Daisy
11 Illusion





Exact Audio Copy V1.1 from 23. June 2015

EAC 抓取日志文件从25. 十二月 2015, 19:40

DJ Zedd / True Colors

使用驱动器:SlimtypeDVD ADS8A5S Adapter: 1ID: 0

读取模式 : 可靠Secure
使用精确流 : 是
清空音频缓存 : 是
使用 C2 指示器 : 否

读取偏移校正: : 0
读取 Lead-In 和 Lead-Out : 否
用静音填充抓取中丢失偏移的采样 : 是
去除首尾静音块 : 否
在CRC 计算中使用了空样本 : 是
已用接口 : Win NT 及 2000 本地 Win32 接口

所用输出模式: : 内部 WAV 函数
样本格式 : 44.100 Hz; 16 Bit; 立体声


已抓取 CD 的 TOC

音轨 | 起始 | 长度 |起始扇区|结束扇区
--------------------------------------------
1 |0:00.00 |5:03.12 | 0 |22736
2 |5:03.12 |4:00.00 |22737 |40736
3 |9:03.12 |3:38.22 |40737 |57108
4 | 12:41.34 |4:02.16 |57109 |75274
5 | 16:43.50 |4:56.21 |75275 |97495
6 | 21:39.71 |3:48.11 |97496 | 114606
7 | 25:28.07 |3:41.40 | 114607 | 131221
8 | 29:09.47 |7:23.22 | 131222 | 164468
9 | 36:32.69 |4:07.38 | 164469 | 183031
10 | 40:40.32 |2:54.31 | 183032 | 196112
11 | 43:34.63 |6:25.42 | 196113 | 225029


范围状态及错误

已选择范围

文件名 C:\Users\Administrator\Desktop\DJ Zedd - True Colors.wav

峰值电平 100.0 %
抓取速度 4.3 X
范围质量 100.0 %
复制 CRC 1B9B09DB
复制成功

没有错误发生

状态报告结尾

---- CUETools DB Plugin V2.1.6






试听曲目:Beautiful Now







链接:包年会员可查看
FLAC 转播前典礼 11/24
Sam Hunt
FLAC 歌曲鉴赏 11/24
Charlie Puth
FLAC 巡演及上座率 11/24
Nicki Minaj
FLAC 百度云无损音乐资源 11/24
Zedd
 
 
由于百度网盘原因,易导致资源失效,您可以在页面上提交失效申报,我们尽量修复!
网易&QQ音乐文件解锁 /