Blue
















微信截图_20221124122847.jpg (164.41 KB, 下载次数: 0)

下载附件



9小时前 上传














微信截图_20221124122856.jpg (70.42 KB, 下载次数: 0)

下载附件



9小时前 上传









专辑介绍:


One Love是英国男孩乐队Blue的第二张录音室专辑
Blue是一隊成功的英国伦敦R&B男孩乐队,成员包括Duncan James、Simon Webbe、Antony Costa以及Lee Ryan。樂隊共獲超過一百一十萬張唱片銷量。近期各成員都已作個人發展。



专辑曲目:

1. One Love
2. Riders
3. Flexin'
4. Sorry Seems To Be The Hardest Word
5. She Told Me
6. Right Here Waiting
7. U Make Me Wanna
8. Ain't Got You
9. Supersexual
10. Don't Treat Me Like a Fool
11. Get Down
12. Privacy
13. Without You
14. Invitation
15. Like A Friend





Exact Audio Copy V1.6 from 23. October 2020

EAC 抓取日志文件从24. 十一月 2022, 0:06

Blue / One Love

使用驱动器:ASUS SDRW-08D1S-U Adapter: 1ID: 0

读取模式 : 可靠Secure
使用精确流 : 是
清空音频缓存 : 是
使用 C2 指示器 : 否

读取偏移校正: : 0
读取 Lead-In 和 Lead-Out : 否
用静音填充抓取中丢失偏移的采样 : 是
去除首尾静音块 : 否
在CRC 计算中使用了空样本 : 是
已用接口 : Win NT 及 2000 本地 Win32 接口

所用输出模式: : 内部 WAV 函数
样本格式 : 44.100 Hz; 16 Bit; 立体声


已抓取 CD 的 TOC

音轨 | 起始 | 长度 |起始扇区|结束扇区
--------------------------------------------
1 |0:00.00 |3:27.14 | 0 |15538
2 |3:27.14 |3:45.21 |15539 |32434
3 |7:12.35 |4:02.52 |32435 |50636
4 | 11:15.12 |3:41.67 |50637 |67278
5 | 14:57.04 |4:02.00 |67279 |85428
6 | 18:59.04 |3:35.56 |85429 | 101609
7 | 22:34.60 |3:49.44 | 101610 | 118828
8 | 26:24.29 |4:33.66 | 118829 | 139369
9 | 30:58.20 |3:38.10 | 139370 | 155729
10 | 34:36.30 |3:53.44 | 155730 | 173248
11 | 38:29.74 |4:10.37 | 173249 | 192035
12 | 42:40.36 |4:00.56 | 192036 | 210091
13 | 46:41.17 |3:27.04 | 210092 | 225620
14 | 50:08.21 |3:33.19 | 225621 | 241614
15 | 53:41.40 |4:15.67 | 241615 | 260806


范围状态及错误

已选择范围

文件名 D:\CD 抓取\Blue - One Love.wav

峰值电平 99.8 %
抓取速度 4.7 X
范围质量 100.0 %
复制 CRC AE7B2119
复制成功

没有错误发生

状态报告结尾

==== 记录校验日志 1FD390E744D92E212B7CC51AEFD04AA5357AF14FB443B32207748E6C723DC0A6 ====





试听曲目:One Love







链接:包年会员可查看
 
 
由于百度网盘原因,易导致资源失效,您可以在页面上提交失效申报,我们尽量修复!
网易&QQ音乐文件解锁 /