Sam Hunt
















微信截图_20221124123441.jpg (142.1 KB, 下载次数: 0)

下载附件



9小时前 上传














微信截图_20221124123452.jpg (93.2 KB, 下载次数: 0)

下载附件



9小时前 上传









专辑介绍:

★表现耀眼的美国乡村乐界唱作新秀

★首张个人大碟一举攻下美国乡村专辑榜冠军与流行专辑榜第3名

★连续缔造“Leave The Night On”和“Take Your Time”两首全美乡村榜冠军单曲

《Montevallo》是美国歌手Sam Hunt的首张专辑。它于2014年10月27日由MCA纳什维尔发布。亨特在专辑中共同编写了所有10首曲目。这张专辑由Zach Crowell和Shane McAnally制作。

高中时是表现优异的美式足球队四分卫,乡村歌手Sam Hunt在18岁收到第一把吉他之后正式开启了他对音乐的兴趣。离开足球队之后,Sam Hunt在2008年移居乡村重镇纳什维尔追寻歌唱梦想。参与创作乡村歌王Kenny Chesney的单曲“Come Over”,让他获颁美国作曲家、作家和发行商协会ASCAP的奖项肯定,接著发表Keith Urban的“Cop Car”和Billy Currington的“We Are Tonight”,两首单曲都有亮眼的表现.,最终签下MCA Nashville发片合约。

继大受好评的2014年暖身EP‘X2C’之后,隆重发行首张个人唱作大碟【Montevallo】,一举攻下美国乡村榜冠军与流行榜第3名。写满Sam的人生真实经历,【Montevallo】是一张最私密的告白,交由Zach Crowell(*Dierks Bentley、Keith Urban)和Shane McAnally(*Luke Bryan、Kacey Musgraves)两位名师联合操刀制作。主打歌“Leave The Night On”直奔乡村销售和点播双榜冠军,热卖百万张;再接再厉的第二首单曲“Take Your Time”,依旧风光佔领乡村榜冠军;特别收录重新诠释写给Keith Urban的“Cop Car”。




专辑曲目:

Take Your Time
Leave The Night On
House Party
Break Up In A Small Town
Single For The Summer
Ex To See
Make You Miss Me
Cop Car
Raised On It
Speakers








Exact Audio Copy V1.1 from 23. June 2015

EAC 抓取日志文件从13. 十二月 2015, 14:27

Sam Hunt / Montevallo

使用驱动器:SlimtypeDVD ADS8A5S Adapter: 1ID: 0

读取模式 : 可靠Secure
使用精确流 : 是
清空音频缓存 : 是
使用 C2 指示器 : 否

读取偏移校正: : 0
读取 Lead-In 和 Lead-Out : 否
用静音填充抓取中丢失偏移的采样 : 是
去除首尾静音块 : 否
在CRC 计算中使用了空样本 : 是
已用接口 : Win NT 及 2000 本地 Win32 接口

所用输出模式: : 内部 WAV 函数
样本格式 : 44.100 Hz; 16 Bit; 立体声


已抓取 CD 的 TOC

音轨 | 起始 | 长度 |起始扇区|结束扇区
--------------------------------------------
1 |0:00.00 |4:03.66 | 0 |18290
2 |4:03.66 |3:12.15 |18291 |32705
3 |7:16.06 |3:11.10 |32706 |47040
4 | 10:27.16 |3:51.06 |47041 |64371
5 | 14:18.22 |5:10.23 |64372 |87644
6 | 19:28.45 |3:19.11 |87645 | 102580
7 | 22:47.56 |3:45.54 | 102581 | 119509
8 | 26:33.35 |4:13.66 | 119510 | 138550
9 | 30:47.26 |3:56.62 | 138551 | 156312
10 | 34:44.13 |3:48.07 | 156313 | 173419


范围状态及错误

已选择范围

文件名 E:\Sam Hunt - Montevallo.wav

峰值电平 99.9 %
抓取速度 4.1 X
范围质量 100.0 %
复制 CRC 5F9FC8C2
复制成功

没有错误发生

---- CUETools DB Plugin V2.1.6






试听曲目:Break Up In a Small Town








链接:包年会员可查看
FLAC 转播前典礼 11/24
Sam Hunt
FLAC 歌曲鉴赏 11/24
Charlie Puth
FLAC 巡演及上座率 11/24
Nicki Minaj
FLAC 百度云无损音乐资源 11/24
Zedd
FLAC 国外专业人士点评 11/25
Avril Lavigne
 
 
由于百度网盘原因,易导致资源失效,您可以在页面上提交失效申报,我们尽量修复!
网易&QQ音乐文件解锁 /