Toy
















85796f570394435587a4cc35eda6cc8.jpg (358.1 KB, 下载次数: 0)

下载附件



2022-11-16 17:52 上传














66936ca7aac3c5b1d4b1b2975625a72.jpg (67.98 KB, 下载次数: 0)

下载附件



2022-11-16 17:52 上传










专辑介绍:

Toy-Box可爱而有趣,清爽至极的歌曲,欢快简单的舞步!看罢之后让人的心情豁然开朗。1999年他们的首张专辑"Fantastic"一经推出就在欧洲和亚洲创下了100万张的销量。至今他们已经拥有了百万畅销单曲等等。
乐队成员包括声音甜美如同小女孩的主唱Anila Mirza,还有嗓音低沉粗哑的Amir。1996年的圣诞节前夜他们在一个舞会上偶尔相遇,因为对音乐有着共同的追求, 他们决定组成一支叫"Toy-Box"的组合。1999年乐队推出单曲"Tarzan and Jane",并迅速成为丹麦,瑞典和挪威排行榜上的冠军曲。同时打进了Billboard的前五名。首张专辑"Fantastic"的主打歌"Tarzan and Jane"、"Best Friend"和"The Sailor Song"都拍成了MTV。"Tarzan and Jane"这支MTV将一头大象搬进了摄影棚,Anila饰演Jane,Amir饰演Tarzan,整个MTV欢快又不失幽默。"Best Friend"和"The Sailor Song"这两首歌动用了很多电脑特技,拍得也很有趣。而其他歌曲也非常好听。"What About"、"Teddy Bear"等慢歌也使人好像进入歌中情境一般。"Toy Ride"专辑是Toy-Box在2001年的又一力作!在音乐元素上的丰富多少弥补了从前过于单调的不足。你可以感觉到乡村、民谣、拉丁舞曲的音乐气息。这张专辑里的每一首歌都是描写一个故事,且每一个故事都发生在不同的国家,很有异国情调。




专辑曲目:

Toy Box Pictures Presents
Sailor Song
Tarzan & Jane
Best Friend
Teddybear
E T
Super Duper Man
I Believe In You
Earth Wind Water & Fire
What About
Eenie Meenie Miney Mo
Thing Called Love
Sayonaro (Goodbye)
Tarzan & Jane (Maxi)
Best Friend (Short)
Tarzan & Jane (Club)
Best Friend (Castle)






Exact Audio Copy V1.3 from 2. September 2016

EAC 抓取日志文件从22. 三月 2017, 13:23

Toy-Box / FanTastic

使用驱动器:Optiarc DVD RW AD-7560A Adapter: 1ID: 0

读取模式 : 可靠Secure
使用精确流 : 是
清空音频缓存 : 是
使用 C2 指示器 : 否

读取偏移校正: : 6
读取 Lead-In 和 Lead-Out : 否
用静音填充抓取中丢失偏移的采样 : 是
去除首尾静音块 : 否
在CRC 计算中使用了空样本 : 是
已用接口 : Win NT 及 2000 本地 Win32 接口

所用输出模式: : 内部 WAV 函数
样本格式 : 44.100 Hz; 16 Bit; 立体声


已抓取 CD 的 TOC

音轨 | 起始 | 长度 |起始扇区|结束扇区
--------------------------------------------
1 |0:00.00 |0:39.10 | 0 | 2934
2 |0:39.10 |3:05.07 | 2935 |16816
3 |3:44.17 |3:04.65 |16817 |30681
4 |6:49.07 |3:28.53 |30682 |46334
5 | 10:17.60 |4:17.07 |46335 |65616
6 | 14:34.67 |3:41.53 |65617 |82244
7 | 18:16.45 |3:19.22 |82245 |97191
8 | 21:35.67 |3:31.40 |97192 | 113056
9 | 25:07.32 |3:38.50 | 113057 | 129456
10 | 28:46.07 |3:39.00 | 129457 | 145881
11 | 32:25.07 |3:17.73 | 145882 | 160729
12 | 35:43.05 |3:17.17 | 160730 | 175521
13 | 39:00.22 |3:25.58 | 175522 | 190954
14 | 42:26.05 |4:08.07 | 190955 | 209561
15 | 46:34.12 |3:12.13 | 209562 | 223974
16 | 49:46.25 |4:11.45 | 223975 | 242844
17 | 53:57.70 |5:05.07 | 242845 | 265726


范围状态及错误

已选择范围

文件名 C:\Users\磊\Desktop\Toy-Box - FanTastic.wav

峰值电平 100.0 %
抓取速度 4.3 X
范围质量 99.9 %
复制 CRC A73EDF83
复制成功

没有错误发生


AccurateRip 摘要

音轨1精确地校准抓取2)[4B91A2F0](AR v2)
音轨2精确地校准抓取3)[753F4E26](AR v2)
音轨3精确地校准抓取3)[03DE3F8F](AR v2)
音轨4精确地校准抓取2)[3A69F79A](AR v2)
音轨5精确地校准抓取2)[DEC4E03F](AR v2)
音轨6精确地校准抓取3)[059B3993](AR v2)
音轨7精确地校准抓取2)[30A4FD1C](AR v2)
音轨8精确地校准抓取2)[F2320024](AR v2)
音轨9精确地校准抓取2)[56822256](AR v2)
音轨 10精确地校准抓取2)[3EBAC82D](AR v2)
音轨 11精确地校准抓取2)[C173CF3B](AR v2)
音轨 12精确地校准抓取2)[E3793C0D](AR v2)
音轨 13精确地校准抓取2)[797B8A82](AR v2)
音轨 14精确地校准抓取2)[D1BC63DE](AR v2)
音轨 15精确地校准抓取2)[8388FF7A](AR v2)
音轨 16精确地校准抓取2)[A1749709](AR v2)
音轨 17精确地校准抓取2)[C8419543](AR v2)

所有音轨精确校准抓取

状态报告结尾

---- CUETools DB Plugin V2.1.6







试听曲目:Tarzan & Jane









链接:包年会员可查看
 
 
由于百度网盘原因,易导致资源失效,您可以在页面上提交失效申报,我们尽量修复!
网易&QQ音乐文件解锁 /