One Direction
















微信截图_20221124142728.jpg (174.71 KB, 下载次数: 0)

下载附件



7小时前 上传














微信截图_20221124142737.jpg (78.15 KB, 下载次数: 0)

下载附件



7小时前 上传









专辑介绍:

最青春无敌少男团体接班人,出道不到1年时间,持续打破不思议记录的1世代,在伦敦奥运闭幕式热力开唱掀起高潮,就连「E!Online」、「时人杂志」、MTV等媒体,全给予高度肯定和评价!1张专辑《青春无敌》全球热销300万张、席捲16国排行第1名席次,创下史上首张专辑空降美国告示牌冠军的英国团体纪录,接连主打的多支单曲更累积800万关卡,趁胜追击的《青春无敌 尖叫演唱会》DVD特辑,风靡全球的大破百万门槛!1世代的作品全球总累积超过1200万张,顺利登上当今最夯男孩偶像天团宝座!

娱乐大亨、选秀教父Simon Cowell强势祕密武器1世代,第一波主打〈What Makes You Beautiful妳如此美丽〉,在英国iTunes发行15分钟内直衝冠军位置,写下英国2011整年度首週销量最高单曲纪录,在YouTube大破两亿700万浏览次数,全美获颁三白金认证,并且夺下青少年票选大奖「最佳夏日单曲」,一举入围MTV音乐奖「最佳新进艺人」、「最佳流行音乐录影带」两项大奖。打败Adele登顶之作〈Someone Like You〉,风光抱回全英音乐奖「最佳英国单曲」大赏肯定!12分钟内所有场次门票销售一空,这是1世代造成席捲歌坛的惊人风暴!




专辑曲目:

What Makes You Beautiful
Gotta Be You
One Thing
More Than This
Up All Night
I Wish
Tell Me A Lie
Taken
I Want
Everything About You
Same Mistakes
Save You Tonight
Stole My Heart







Exact Audio Copy V1.6 from 23. October 2020

EAC 抓取日志文件从24. 十一月 2022, 1:06

One Direction / Up All Night

使用驱动器:ASUS SDRW-08D1S-U Adapter: 1ID: 0

读取模式 : 可靠Secure
使用精确流 : 是
清空音频缓存 : 是
使用 C2 指示器 : 否

读取偏移校正: : 0
读取 Lead-In 和 Lead-Out : 否
用静音填充抓取中丢失偏移的采样 : 是
去除首尾静音块 : 否
在CRC 计算中使用了空样本 : 是
已用接口 : Win NT 及 2000 本地 Win32 接口

所用输出模式: : 内部 WAV 函数
样本格式 : 44.100 Hz; 16 Bit; 立体声


已抓取 CD 的 TOC

音轨 | 起始 | 长度 |起始扇区|结束扇区
--------------------------------------------
1 |0:00.00 |3:18.63 | 0 |14912
2 |3:18.63 |4:04.63 |14913 |33275
3 |7:23.51 |3:17.14 |33276 |48064
4 | 10:40.65 |3:48.52 |48065 |65216
5 | 14:29.42 |3:14.21 |65217 |79787
6 | 17:43.63 |3:36.40 |79788 |96027
7 | 21:20.28 |3:17.48 |96028 | 110850
8 | 24:38.01 |3:57.22 | 110851 | 128647
9 | 28:35.23 |2:53.13 | 128648 | 141635
10 | 31:28.36 |3:37.03 | 141636 | 157913
11 | 35:05.39 |3:38.23 | 157914 | 174286
12 | 38:43.62 |3:25.39 | 174287 | 189700
13 | 42:09.26 |3:25.10 | 189701 | 205085


范围状态及错误

已选择范围

文件名 D:\CD 抓取\One Direction - Up All Night.wav

峰值电平 99.8 %
抓取速度 4.4 X
范围质量 100.0 %
复制 CRC AD556902
复制成功

没有错误发生

状态报告结尾

==== 记录校验日志 C59E1A3DC3734813BB995291F5878EED10B665EAADBB43693DFFE2EAA2694BCE ====





试听曲目:What Makes You Beautiful







链接:包年会员可查看
FLAC 巡演及上座率 11/24
Nicki Minaj
 
 
由于百度网盘原因,易导致资源失效,您可以在页面上提交失效申报,我们尽量修复!
网易&QQ音乐文件解锁 /