Nicki Minaj
















微信截图_20221124120717.jpg (93.77 KB, 下载次数: 0)

下载附件



9小时前 上传














微信截图_20221124120726.jpg (128.62 KB, 下载次数: 0)

下载附件



9小时前 上传










专辑介绍:

◎ 酝酿两年,红粉麻辣鸡回归嘻哈初心

◎ 注入 100% 情感,献出至今最走心专辑

《The Pinkprint》是美国嘻哈女歌手Nicki Minaj的第三张个人专辑。这张专辑相对于她以往的电子合成器风格有了明显的改变,没有派对舞曲,回归她进入嘻哈圈的初心。在Boi-1da、Da Internz、Detail、Polow da Don、Dr. Luke、Cirkut等制作人的联合助力下,先行单曲《Pills n Potions》、《Anaconda》、《Only》、《Bed of Lies》均在歌迷群体中引起巨大反响,攀至Billboard第2位的《Anaconda》也成为了Nicki Minaj的排行榜最佳战绩。





专辑曲目:

All Things Go
I Lied
The Crying Game Feat. Jessie Ware
Get On Your Knees Feat. Ariana Grande
Feeling Myself Feat. Beyonce
Only Feat. Chris Brown, Lil Wayne & Drake
Want Some More
Four Door Aventador
Favorite Feat. Jeremih
Buy A Heart Feat. Meek Mill
Trini Dem Girls Feat. Lunch Money
Anaconda
The Night Is Still Young
Pills and Potions
Bed Of Lies Feat. Skylar Grey
Grand Piano
Big Daddy Feat. Meek Mill
Shanghai
Win Again







Exact Audio Copy V1.3 from 2. September 2016

EAC 抓取日志文件从16. 四月 2017, 15:52

Nicki Minaj / The Pinkprint (Deluxe Version)

使用驱动器:ASUS SDRW-08D2S-U Adapter: 1ID: 0

读取模式 : 可靠Secure
使用精确流 : 是
清空音频缓存 : 是
使用 C2 指示器 : 否

读取偏移校正: : 6
读取 Lead-In 和 Lead-Out : 是
用静音填充抓取中丢失偏移的采样 : 是
去除首尾静音块 : 否
在CRC 计算中使用了空样本 : 是
已用接口 : Win NT 及 2000 本地 Win32 接口

所用输出模式: : 内部 WAV 函数
样本格式 : 44.100 Hz; 16 Bit; 立体声


已抓取 CD 的 TOC

音轨 | 起始 | 长度 |起始扇区|结束扇区
--------------------------------------------
1 |0:00.00 |4:53.55 | 0 |22029
2 |4:53.55 |5:04.11 |22030 |44840
3 |9:57.66 |4:25.17 |44841 |64732
4 | 14:23.08 |3:36.37 |64733 |80969
5 | 17:59.45 |3:57.63 |80970 |98807
6 | 21:57.33 |5:12.02 |98808 | 122209
7 | 27:09.35 |3:49.47 | 122210 | 139431
8 | 30:59.07 |3:02.50 | 139432 | 153131
9 | 34:01.57 |4:02.71 | 153132 | 171352
10 | 38:04.53 |4:15.35 | 171353 | 190512
11 | 42:20.13 |3:14.55 | 190513 | 205117
12 | 45:34.68 |4:20.18 | 205118 | 224635
13 | 49:55.11 |3:47.42 | 224636 | 241702
14 | 53:42.53 |4:28.00 | 241703 | 261802
15 | 58:10.53 |4:29.71 | 261803 | 282048
16 | 62:40.49 |4:19.08 | 282049 | 301481
17 | 66:59.57 |3:19.53 | 301482 | 316459
18 | 70:19.35 |3:39.37 | 316460 | 332921
19 | 73:58.72 |4:10.34 | 332922 | 351705


范围状态及错误

已选择范围

文件名 C:\Users\磊\Desktop\Nicki Minaj - The Pinkprint (Deluxe Version).wav

可疑位置 1:18:09

峰值电平 100.0 %
抓取速度 5.1 X
范围质量 99.9 %
复制 CRC 3A2E0974
复制结束


没有错误发生

状态报告结尾

---- CUETools DB Plugin V2.1.6






试听曲目:The Night Is Still Young







链接:包年会员可查看
FLAC 转播前典礼 11/24
Sam Hunt
FLAC 乐团简介 11/24
One Direction
FLAC 歌曲鉴赏 11/24
Charlie Puth
FLAC 巡演及上座率 11/24
Nicki Minaj
FLAC 早年经历 11/24
Troye Sivan
FLAC 百度云无损音乐资源 11/24
Zedd
 
 
由于百度网盘原因,易导致资源失效,您可以在页面上提交失效申报,我们尽量修复!
网易&QQ音乐文件解锁 /