Lana Del Rey
















6926bb702e3bc06f97c7f7f68ee9687.jpg (228.04 KB, 下载次数: 0)

下载附件



1小时前 上传














2a09119393c31b7607b1e69fdb91d1e.jpg (129.73 KB, 下载次数: 0)

下载附件



1小时前 上传











专辑介绍:

★格莱美、金球奖入围肯定 葛莱美绝色女伶 全新专辑降临

★携手好友制作人Jack Antonoff再造格莱美奖“年度专辑”阵容

★收录同名话题主打"Chemtrails Over The Country Club"共11首力作

继2019年发布广受好评且收获格莱美提名专辑《Norman F**king Rockwell》之后,Lana Del Rey释出了备受期待的第七张录音室大碟《Chemtrails Over The Country Club》。

以令人陶醉且深陷的Baroque Pop以及Dream Pop打底,混搭上Rock、Indie Pop与Folk的灵魂,缔造出全球独一无二的音乐景緻,Lana Del Rey不只有让众人神魂倾倒的女神外表,浑厚低吟的举世灵韵歌喉,搭配上充满个人特色的创作,足以让Lana Del Rey在当今全球乐坛中,拥有不可撼摇的一席之地。暌违二年,Lana Del Rey终于交出全新作品,世人将再次沉迷于她的音乐世界之中。

本名Elizabeth Woolridge Grant的Lana Del Rey,2005年怀抱著发片梦想正式从纽约出道,并藉著EP【Kill Kill】闯出名号,在2012年签入环球音乐旗下后,陆续以电影【了不起的盖茨比】的主题曲" Young and Beautiful"、"Summertime Sadness"、"Video Games"、"Born to Die"等作品打入全球排行榜。出道至今,共发行六张录音室专辑,座拥全英音乐奖、告示牌音乐大奖、MTV音乐大奖、卫星奖等荣耀加持,除此之外,还被格莱美奖提名、金球奖提名都足以证明了Lana Del Rey超越众人的写歌功力与惊人创作天赋备受肯定。在2019年释出【Norman F***ng Rockwell!】后,首度以个人身份入围格莱美奖“年度专辑”即便最后未能抱奖而归,但已让乐坛更加期待下一次的出辑,2020年没有因疫情停下创作的脚步,筹备已久的有声诗集【Violet Bent Backwards Over the Grass】惊喜问世,又再次见识到Lana Del Rey艺术和商业兼具的完美搭配;在经过多次于个人社交平台上漏透新专辑的相关资讯,最后Lana Del Rey宣告新专辑【Chemtrails over the Country Club】的诞生“对于我目前在进行的创作,我感到相当兴奋,我一点也不想停下脚步,除此之外,我还想要谱出许多特别的旋律音符。”

专辑收录11首曲目,由Lana Del Rey与Jack Antonoff联手创作。除了先行发布曲目《Chemtrails Over The Country Club》和 《Let Me Love You Like A Woman》之外,专辑还包括一首翻唱版曲目,原出自传奇音乐人/诗人Joni Mitchell的经典作《For Free》,翻唱版本由Lana Del Rey搭档Zella Day和Weyes Blood共同演绎。




专辑曲目:

01 White Dress
02 Chemtrails Over the Country Club
03 Tulsa Jesus Freak
04 Let Me Love You Like a Woman
05 Wild at Heart
06 Dark But Just a Game
07 Not All Who Wander Are Lost
08 Yosemite
09 Breaking Up Slowly
10 Dance Till We Die
11 For Free




Exact Audio Copy V1.3 from 2. September 2016

EAC 抓取日志文件从16. 五月 2021, 15:00

Lana Del Rey / Chemtrails Over the Country Club

使用驱动器:ASUS SDRW-08D2S-U Adapter: 1ID: 0

读取模式 : 可靠Secure
使用精确流 : 是
清空音频缓存 : 是
使用 C2 指示器 : 否

读取偏移校正: : 0
读取 Lead-In 和 Lead-Out : 否
用静音填充抓取中丢失偏移的采样 : 是
去除首尾静音块 : 否
在CRC 计算中使用了空样本 : 是
已用接口 : Win NT 及 2000 本地 Win32 接口

所用输出模式: : 内部 WAV 函数
样本格式 : 44.100 Hz; 16 Bit; 立体声


已抓取 CD 的 TOC

音轨 | 起始 | 长度 |起始扇区|结束扇区
--------------------------------------------
1 |0:00.00 |5:33.53 | 0 |25027
2 |5:33.53 |4:31.13 |25028 |45365
3 | 10:04.66 |3:35.51 |45366 |61541
4 | 13:40.42 |3:20.49 |61542 |76590
5 | 17:01.16 |4:06.46 |76591 |95086
6 | 21:07.62 |3:55.50 |95087 | 112761
7 | 25:03.37 |4:07.03 | 112762 | 131289
8 | 29:10.40 |5:04.60 | 131290 | 154149
9 | 34:15.25 |2:57.40 | 154150 | 167464
10 | 37:12.65 |4:03.03 | 167465 | 185692
11 | 41:15.68 |4:11.64 | 185693 | 204581


范围状态及错误

已选择范围

文件名 C:\Users\12751\Desktop\Lana Del Rey - Chemtrails Over the Country Club.wav

峰值电平 100.0 %
抓取速度 4.4 X
范围质量 100.0 %
复制 CRC 94417C3D
复制成功

没有错误发生

状态报告结尾

==== 记录校验日志 BC1B159233F4734B0360747C1DEA1F6FC669A5DF8819B362C345F26FD94CD1DD ====






专辑为自购,压缩包有封面,碟片的扫描图片。




链接:包年会员可查看
 
 
由于百度网盘原因,易导致资源失效,您可以在页面上提交失效申报,我们尽量修复!
网易&QQ音乐文件解锁 /