Ed Sheeran
















96de54270ca3c68311627af3e7dd796.jpg (199.06 KB, 下载次数: 0)

下载附件



2小时前 上传














0f1e26b4c95a3547ebe4d83be3c3e52.jpg (96.22 KB, 下载次数: 0)

下载附件



2小时前 上传










专辑介绍:

Ed Sheeran黄老板超级专辑《No.6 Collaborations Project》


全球引颈期盼,Ed Sheeran黄老板超级专辑《No.6 Collaborations Project》,15首歌曲云集22位欧美乐坛各路神仙,7月12日强势上线!

作为格莱美多项重要大奖获得者,凭借2017年全球最畅销专辑《÷》成为当年最高流量歌手,其中“Shape of You” 连冠12周成为超过20亿流量霸榜神作,Ed Sheeran这张时隔两年的超级专辑着实令人无比期待,持续放出的单曲及强大合作者名单更是吊足胃口!

整张专辑集结全明星梦幻阵容合作加持,包括Justin Bieber, Bruno Mars, Cardi B, Camila Cabello, Eminem, Travis Scott, Khalid等22位欧美乐坛重磅艺人。每位歌手风格不同,各显神通,歌曲涵盖多种流派,一举囊括说唱、R&B、流行、摇滚、电子、成人抒情等等,势必令歌迷听得过瘾!

专辑释出前,Ed Sheeran发布5首先行曲让歌迷提前尝鲜。与Justin Bieber第三度合作的“I Don't Care”性感撩人,附上洗脑属性成为空降冲榜之作!黄老板突破自我拉宽音乐疆域,与格莱美认证说唱歌手Chance the Rapper和PnB Rock合作“Cross Me”,抓耳节奏酷劲十足,势必席卷整个夏天;与Khalid合作的“Beautiful People”, 两把感性歌喉相互交融,带来直击灵魂的美妙体验; 火星老仙Bruno Mars和乡村大佬Chris Stapleton强势助阵“Blow”,摇滚炸裂酣畅淋漓, 火星哥更难得狂飙吉他solo!与骚灵新人Yebba合唱的”Best Part of Me“,温情旋律完美诠释爱情真谛,全新婚礼示爱神曲预定!

关于这张突破自我的超级专辑,Ed Sheeran表示:“2011年签约公司以前,我制作了一张名为《No.5 Collaborations Project》的EP。从那以后我一直想再做一张类似的专辑。所以去年在巡演路上,我就开始在电脑上创作这张专辑。”黄老板更是大赞每位合作歌手:“在这张专辑中所有和我合作的歌手,我都是他们的超级粉丝,所以制作过程十分顺利有趣。同时他们也在不断地激励着我,为每首歌带来全新的灵感。我迫不及待想让你们听见这些作品了!”

锁定这张专辑,见证黄老板突破自我的全新蜕变!




专辑曲目:

1. "Beautiful People" (featuring Khalid)
2. "South of the Border" (featuring Camila Cabello and Cardi B)
3. "Cross Me" (featuring Chanc e the Rapper and PnB Rock)
4. "Take Me Back to London" (featuring Stormzy)
5. "Best Part of Me" (featuring Yebba)
6. "I Don't Care" (with Justin Bieber)
7. "Antisocial" (featuring Travis Scott)
8. "Remember the Name" (featuring Eminem and 50 Cent)
9. "Feels" (featuring Young Thug and J Hus)
10. "Put It All on Me" (featuring Ella Mai)
11. "Nothing on You" (featuring Paulo Londra and Dave)
12. "I Don't Want Your Money" (featuring H.E.R)
13. "1000 Nights" (featuring Meek Mill and A Boogie Wit Da Hoodie)
14. "Way to Break My Heart" (featuring Skrillex)
15. "Blow" (with Bruno Mars and Chris Stapleton)




Exact Audio Copy V1.3 from 2. September 2016

EAC 抓取日志文件从16. 五月 2021, 16:09

Ed Sheeran / No.6 Collaborations Project

使用驱动器:ASUS SDRW-08D2S-U Adapter: 1ID: 0

读取模式 : 可靠Secure
使用精确流 : 是
清空音频缓存 : 是
使用 C2 指示器 : 否

读取偏移校正: : 0
读取 Lead-In 和 Lead-Out : 否
用静音填充抓取中丢失偏移的采样 : 是
去除首尾静音块 : 否
在CRC 计算中使用了空样本 : 是
已用接口 : Win NT 及 2000 本地 Win32 接口

所用输出模式: : 内部 WAV 函数
样本格式 : 44.100 Hz; 16 Bit; 立体声


已抓取 CD 的 TOC

音轨 | 起始 | 长度 |起始扇区|结束扇区
--------------------------------------------
1 |0:00.00 |3:18.65 | 0 |14914
2 |3:18.65 |3:24.35 |14915 |30249
3 |6:43.25 |3:26.14 |30250 |45713
4 | 10:09.39 |3:09.55 |45714 |59943
5 | 13:19.19 |4:03.20 |59944 |78188
6 | 17:22.39 |3:39.72 |78189 |94685
7 | 21:02.36 |2:41.56 |94686 | 106816
8 | 23:44.17 |3:27.57 | 106817 | 122398
9 | 27:11.74 |2:30.59 | 122399 | 133707
10 | 29:42.58 |3:17.07 | 133708 | 148489
11 | 32:59.65 |3:20.55 | 148490 | 163544
12 | 36:20.45 |3:24.38 | 163545 | 178882
13 | 39:45.08 |3:32.23 | 178883 | 194805
14 | 43:17.31 |3:10.22 | 194806 | 209077
15 | 46:27.53 |3:31.09 | 209078 | 224911


范围状态及错误

已选择范围

文件名 C:\Users\12751\Desktop\Ed Sheeran - No.6 Collaborations Project.wav

峰值电平 99.8 %
抓取速度 4.4 X
范围质量 100.0 %
复制 CRC 3A372E94
复制成功

没有错误发生

状态报告结尾

==== 记录校验日志 D8E6573FB5650EF8EC76ACAEF2182961A187E6DD2C3E2D920B63C58B72028E18 ====




专辑为自购,压缩包有封面,碟片的扫描图片。




链接:包年会员可查看
 
 
由于百度网盘原因,易导致资源失效,您可以在页面上提交失效申报,我们尽量修复!
网易&QQ音乐文件解锁 /