Troye Sivan
















caee673d1f132aae560ddc361c4e996.jpg (138.39 KB, 下载次数: 0)

下载附件



7小时前 上传














b8cf4ec89e8d3ae7ba80ef42f16abc5.jpg (179.04 KB, 下载次数: 0)

下载附件



7小时前 上传










专辑介绍:

美丽少年Troye Sivan的歌声,让同样在今年释出全新专辑的乐坛首席天后Taylor Swift,以及被誉为21世纪最伟大女歌手之一的Adele,都曾经讚誉有加,奠定了他在乐坛出道的稳固根基;曾获时代杂志册封「25大具有影响力青少年」,并多次拿下MTV大奖、Teen Choice奖、ARIA音乐大奖,如今他带著全新的音乐归来,预备再次绽放最美丽的旋律与节奏。

现年25岁的Troye Sivan,在2006年时正式出道,跨足歌坛影坛的他,可说是新生代最多才多艺的新星之一,藉由专辑【Blue Neighbourhood】、【Bloom】,以及【Dare to Dream】、【June Haverly】、【TRXYE】、【Wild】等EP,Troye Sivan累积可观的专辑和单曲销售,并且在YouTube拥有超过12亿次的观看,Spotify更突破20亿次串流,除此之外,Troye Sivan还坐拥2座ARIA音乐大奖、2座GLAAD Media Awards大奖、3座MTV音乐大奖、1座Teen Choice Awards大奖,在当代的同辈歌手中,可说是极为优秀和杰出。2018年释出【Bloom】之后,Troye Sivan的音乐视野越来越广阔,但同时他也进入自我探寻的道路之中,成名后的生活、LGBTQ的奋斗,种种生命中的大事不断衝击著Troye Sivan,这些不只增进了他的音乐养分,同时也让他对于人生有不同的体悟,针对全新的作品他曾表示,这将会是一张「概念式」的迷你专辑,他说:「这个故事并没有完结,它还在继续发展,这些集结起来的歌曲,代表我在探索生命中的各种面向,其中有充满情绪起伏的时期,为我带来了各种新奇的体验。重新审视这些歌曲以及歌曲当下的情境,对我来说有点艰难,但我对于这些创作出的作品感到非常骄傲,同时也对于要向世界发表这些歌曲感到兴奋」。等待了2年Troye Sivan交出了全新迷你专辑【In A Dream】。

【In A Dream】请到了瑞典天王製作人OzGo(Taylor Swift、Maroon 5、DNCE、Britney Spears),以及加州新锐製作人Teo Halm(【The Lion King: The Gift】原声带歌曲、Omar Apollo、IDK)等两人,联手为Troye Sivan操刀;开场歌曲"Take Yourself Home",在Spotify写下近3000万次串流,并荣登澳洲与纽西兰排行,除此之外,还被翻译成高达9种语言,在世界各国广为流传;拥有YouTube上近500万次观看、Spotify超过1400万刺串流的"Easy",可说是迷你专辑内的超级亮点,带有80年代复古兴味和Troye Sivan专属的调性,打造出一首极为优异的杰作;步调缓慢轻柔的"Rager Teenager!",解密Troye Sivan内心的独白,在各种美好的想像与现实衝突中,碰撞出这首让人感动万分的歌曲,而以自拍形式构成的MV,更是增添了一份亲切感和真实感,让人体会道Troye Sivan的独特温柔。

被USA Today列入“本月你需要听的十张专辑”名单中。The Associated Press形容道“对于一位不断发展的艺人来说,这张EP如一道完美的前菜,对一个不安的时代来说,这是一张令人留恋和具有实验性的音乐明信片。”《In A Dream》常规版的6首歌中,5首由Oscar Görres担任制作(曾与The Weeknd, MARINA, Tove Lo合作),并在疫情爆发前于斯德哥尔摩和洛杉矶两地完成了录制。

首支单曲《Take Yourself Home》曾登顶全球推特趋势,至今已收获9200万全球流媒体播放量。纽约时报评价《Take Yourself Home》为“低调奢华的灵魂直击之作”。PAPER杂志称,“这或许是COVID-19爆发期间,第一首能代表灾难降临时群体心境的伟大歌曲。”

在EP发行前不久,Troye分享了最新主打曲《Easy》,该单曲目首周全球流媒体量已收获超过1100万,目前已写下3600万流量成绩。另外,单曲《Rager teenager!》以及Troye亲自执导的MV也在EP正式上架前先行发布。

VULTURE形容《Easy》是一团像素化的云朵,是驶向未知之地的夜晚之旅,是霓蓝的泡泡浴,是汽泡可乐软糖,他们将这首歌列入为“本周你生活中需要的10首歌曲“之一;The FADER称赞Troye专注地向着更复杂、更情绪化的流行领域推进;Billboard将《Easy》誉为“舞池中哭泣的主题曲……令人着迷的合成器旋律和令人心碎的歌词会让你起舞,想起你的前任”;PAPER说到《Rager teenager!》为听众带来了梦幻般的怀旧感;Rolling Stone杂志称赞这是一首“梦幻”的歌曲。

今年迎来Troye Sivan通过主流厂牌发行的首张EP《TRXYE》六周年。该专辑曾一举登上Billboard 200专辑榜前五位,其中包含曲目《Happy Little Pill》。Troye 目前已收获80亿全球流媒体播放量。他的第二张专辑《Bloom》(Capitol Records),被Rolling Stone、USA Today、Billboard、OUT、NPR Music和The Guardian等多家媒体评为2018年最佳数字专辑之一。TIME赞誉,“Troye Sivan是一位完美的流行明星”。

Troye Sivan众多获奖经历包括:一座公告牌音乐奖(Billboard Music Awards),三座MTV欧洲音乐大奖(MTV Europe Music Awards)和两座GLAAD媒体奖。他与Jónsi为电影《Boy Erased》(被抹去的男孩)创作的单曲《Revelation》获得金球奖“最佳电影原创歌曲”提名。由Troye联合创作的单曲《Louder Than Bombs》被收录至BTS的专辑《Map of The Soul: 7》中,该数字专辑曾于发行首周空降美国、韩国和澳大利亚等地区的榜单冠军。他还被选为Pasha de Cartier手表发布的五位大使之一。




专辑曲目:

1. Take Yourself Home

2. Easy

3. could cry just thinkin about you

4. STUD

5. Rager teenager!

6. IN A DREAM

7. Take Yourself Home - Acoustic

8. Easy Writing Session [Demo]





Exact Audio Copy V1.5 from 20. February 2020

EAC 抓取日志文件从18. 十月 2020, 20:49

Troye Sivan / In A Dream (Korea Special Edition)[EP]

使用驱动器:ASUS SDRW-08D2S-U Adapter: 1ID: 0

读取模式 : 可靠Secure
使用精确流 : 是
清空音频缓存 : 是
使用 C2 指示器 : 否

读取偏移校正: : 0
读取 Lead-In 和 Lead-Out : 否
用静音填充抓取中丢失偏移的采样 : 是
去除首尾静音块 : 否
在CRC 计算中使用了空样本 : 是
已用接口 : Win NT 及 2000 本地 Win32 接口

所用输出模式: : 内部 WAV 函数
样本格式 : 44.100 Hz; 16 Bit; 立体声


已抓取 CD 的 TOC

音轨 | 起始 | 长度 |起始扇区|结束扇区
--------------------------------------------
1 |0:00.00 |4:09.27 | 0 |18701
2 |4:09.27 |3:46.59 |18702 |35710
3 |7:56.11 |0:52.35 |35711 |39645
4 |8:48.46 |3:29.54 |39646 |55374
5 | 12:18.25 |3:21.69 |55375 |70518
6 | 15:40.19 |3:49.46 |70519 |87739
7 | 19:29.65 |2:55.20 |87740 | 100884
8 | 22:25.10 |2:51.00 | 100885 | 113709


范围状态及错误

已选择范围

文件名 C:\Users\888\Desktop\Troye Sivan - In A Dream (Korea Special Edition)[EP].wav

峰值电平 99.8 %
抓取速度 3.7 X
范围质量 100.0 %
复制 CRC 7644A017
复制成功

没有错误发生

状态报告结尾

==== 记录校验日志 9BD39336331A7BF4FAC23936465DC37BBAB6B0867BD18B41968C39150819436F ====







专辑为自购,压缩包有封面,碟片的扫描图片。




链接:包年会员可查看
 
 
由于百度网盘原因,易导致资源失效,您可以在页面上提交失效申报,我们尽量修复!
网易&QQ音乐文件解锁 /