vengaboys
















84c22f31587274cf5342c93aef9dac4.jpg (208.56 KB, 下载次数: 0)

下载附件



2022-11-16 18:04 上传














9ac08d6749979749c54dc9040d2052d.jpg (279.68 KB, 下载次数: 0)

下载附件



2022-11-16 18:04 上传










专辑介绍:

专辑介绍找不到,反正好几首歌曲都是溜冰场循环曲目......




专辑曲目:

01 We Like to Party
02 Boom, Boom, Boom! !
03 Ho Ho Vengaboys!
04 Up & Down
05 We're Going to Ibiza
06 Parada de Tettas
07 To Brazil!
08Vengababes From Outer Space
09 Movin' Around
10 Overwhelm Yourself!
11 The Vengabeat
12 Paradise...
13 Superfly Slick Dick
14 All Night Passion
15 24 Hours
16 We Like To Party!(Jason Navins Club Mix)
17 Megamix(Vengaboys Medley)






Exact Audio Copy V1.3 from 2. September 2016

EAC 抓取日志文件从1. 四月 2017, 19:45

vengaboys / The Party Album

使用驱动器:Optiarc DVD RW AD-7560A Adapter: 1ID: 0

读取模式 : 可靠Secure
使用精确流 : 是
清空音频缓存 : 是
使用 C2 指示器 : 否

读取偏移校正: : 6
读取 Lead-In 和 Lead-Out : 否
用静音填充抓取中丢失偏移的采样 : 是
去除首尾静音块 : 否
在CRC 计算中使用了空样本 : 是
已用接口 : Win NT 及 2000 本地 Win32 接口

所用输出模式: : 内部 WAV 函数
样本格式 : 44.100 Hz; 16 Bit; 立体声


已抓取 CD 的 TOC

音轨 | 起始 | 长度 |起始扇区|结束扇区
--------------------------------------------
1 |0:00.00 |3:42.10 | 0 |16659
2 |3:42.10 |3:21.62 |16660 |31796
3 |7:03.72 |3:40.23 |31797 |48319
4 | 10:44.20 |4:02.57 |48320 |66526
5 | 14:47.02 |3:08.50 |66527 |80676
6 | 17:55.52 |4:03.55 |80677 |98956
7 | 21:59.32 |3:06.73 |98957 | 112979
8 | 25:06.30 |3:25.60 | 112980 | 128414
9 | 28:32.15 |3:47.67 | 128415 | 145506
10 | 32:20.07 |4:26.00 | 145507 | 165456
11 | 36:46.07 |4:08.58 | 165457 | 184114
12 | 40:54.65 |4:03.47 | 184115 | 202386
13 | 44:58.37 |5:20.23 | 202387 | 226409
14 | 50:18.60 |3:41.45 | 226410 | 243029
15 | 54:00.30 |6:42.35 | 243030 | 273214
16 | 60:42.65 |6:49.12 | 273215 | 303901
17 | 67:32.02 |5:48.23 | 303902 | 330024


范围状态及错误

已选择范围

文件名 C:\Users\磊\Desktop\vengaboys - The Party Album.wav

峰值电平 99.3 %
抓取速度 4.9 X
范围质量 99.9 %
复制 CRC 294D1E36
复制成功

没有错误发生


状态报告结尾

---- CUETools DB Plugin V2.1.6





试听曲目:Boom, Boom, Boom! !







链接:包年会员可查看
 
 
由于百度网盘原因,易导致资源失效,您可以在页面上提交失效申报,我们尽量修复!
网易&QQ音乐文件解锁 /