ZAYN
















微信截图_20221124112449.jpg (277.78 KB, 下载次数: 0)

下载附件



10小时前 上传














微信截图_20221124112500.jpg (56.69 KB, 下载次数: 0)

下载附件



10小时前 上传














微信截图_20221124112509.jpg (52.05 KB, 下载次数: 0)

下载附件



10小时前 上传










专辑介绍:

打破流行界限 开创时代尖端

前1世代最具才华潮酷男神 2018压轴引爆

ZAYN 第二张全新创作专辑

ICARUS FALLS

◎前单向组合最具个性与才华潮酷男神第二张最新创作专辑!

◎全面挑战自我,开启前所未有音乐视野,超过两年酝酿完美呈现!

◎呼唤卡米拉、威肯、阿黛尔、贾斯汀汀布莱克、麦当娜等格莱美最强制作群携手掌舵!

◎分为ICARUS及FALLS 2CD概念,收录〈Let Me〉、〈Entertainer〉、Timbaland帮腔〈Too Much〉及Nicki Minaj助唱〈No Candle No Light〉等共27首潮酷创作大喷发!

英国流行男歌手ZAYN于2018年12月14日推出个人第二张全新大碟《Icarus / Falls》;包括与Nicki Minaj合作新曲〈No Candle No Light〉及先前发行的多首歌曲〈Let Me〉、〈Entertainer〉、〈Sour Diesel〉、〈Too Much〉、〈Fingers〉都将一并收录!

卸下偶像光环,展现叛逆个性,成功塑造流行音乐潮派,立足新世代男神地位的Zayn Malik,拿下全美音乐奖「年度新人」肯定,除了歌唱功力了得,帅气外型和衣架子身材,成为Zayn X Versus Versace服饰、Zayn X Giuseppe Zanotti男鞋、Zayn X Kooples男士手袋等品牌联名系列设计师、灵感缪斯!

17岁从英国The X Factor达人秀第七季舞台走红,和路易斯·汤姆林森、哈里·斯泰尔斯、利亚姆·佩恩、奈尔·霍兰组织起单向组合,短短五年横扫国际歌坛,留下青春无敌的永恆回忆!2016年送上脱队后首张专辑《Mind Of Mine》直接空降英美两地冠军,加上单飞首曲〈Pillowtalk〉,iTunes上架不到24小时即衝上60国冠军,强势攻佔包含美国及英国在内68国流行专辑排行NO.1,创下音乐史上首位初登场英国男歌手专辑和单曲全数空降英美两地冠军的傲人纪录!

收录多达27首歌的第二张专辑《Icarus Falls》,原先预计于2017年9月发行,ZAYN却发现每天都有新想法,不停挑战自我,不断更新创作理念,要求更为完整与完美的成果,又经过1年的概念堆砌,呼唤Frank Dukes(Camila Cabello、The Weeknd)+Greg Kurstin(Adele、P!nk)+Malay(John Legend、Jamie Foxx)+Timbaland(Justin Timberlake、Madonna)等格莱美一线制作群携手掌舵,调配出藏在其中的惊喜桥段!CD1 Icarus篇以浪漫到底的守护情歌〈Let Me〉当开场,突破数字平台破亿点击量、YouTube同样也是迅速缔造上亿大关,突显赞恩精湛演唱实力;真假音漂亮转换的〈Natural〉,沾染PBR&B潮痞气息;注入流行摇滚能量的〈Back To Life〉,声线表情引发起伏的情感波澜;漫不经心的演绎方式,搭上迷离氛围的〈Stand Still〉,合声部份泛起如同Maxwell的相似影子;编织讨喜律动的〈Talk To Me〉和〈I Don’t Mind〉,都是谱写悦耳旋律的满分好歌。CD2 Falls篇,很有西部荒野味的〈Good Guy〉,窜动痞痞调调,赞恩接棒挑战独特音色;后续的Hip-Hop混入〈You Wish You Knew〉、Funky躁动〈Sour Diesel〉、Gospel洗礼〈Satisfaction〉,不思议涂抹出缤纷的音乐色彩,实验面貌完全崭露;流行味浓的抒情小品〈Good Years〉,就是要打动每位粉丝的心;串联Tropical House和EDM-Pop的〈No Candle No Light〉,邀请饶舌女霸主Nicki Minaj助阵,成为专辑中最强势主打;身拥4座格莱美奖全方位鬼才Timbaland参与撰写/合唱〈Too Much〉,R&B和Hip-Hop的温柔撞击,孕育著源源不绝的奇想,引领更长远华丽的潮流脉络!





专辑曲目:

CD1:

1.Let Me
2.Natural
3.Back to Life
4.Common
5.Imprint
6.Stand Still
7.Tonight
8.Flight of the Stars
9.If I Got You
10.Talk to Me (T.T.M.)
11.There You Are
12.I Don't Mind
13.Icarus Interlude




CD2:

14.Good Guy
15.You Wish You Knew
16.Sour Diesel
17.Satisfaction
18.Scripted
19.Entertainer
20.All That
21.Good Years
22.Fresh Air
23.Rainberry
24.Insomnia
25.No Candle No Light" (featuring Nicki Minaj)
26.Fingers
27.Too Much (featuring Timbaland)






CD1:

Exact Audio Copy V1.5 from 20. February 2020

EAC 抓取日志文件从15. 十二月 2020, 14:32

ZAYN / Icarus Falls(disc 1)

使用驱动器:ASUS SDRW-08D2S-U Adapter: 1ID: 0

读取模式 : 可靠Secure
使用精确流 : 是
清空音频缓存 : 是
使用 C2 指示器 : 否

读取偏移校正: : 0
读取 Lead-In 和 Lead-Out : 否
用静音填充抓取中丢失偏移的采样 : 是
去除首尾静音块 : 否
在CRC 计算中使用了空样本 : 是
已用接口 : Win NT 及 2000 本地 Win32 接口

所用输出模式: : 内部 WAV 函数
样本格式 : 44.100 Hz; 16 Bit; 立体声


已抓取 CD 的 TOC

音轨 | 起始 | 长度 |起始扇区|结束扇区
--------------------------------------------
1 |0:00.00 |3:05.28 | 0 |13902
2 |3:05.28 |3:13.14 |13903 |28391
3 |6:18.42 |3:15.35 |28392 |43051
4 |9:34.02 |3:52.39 |43052 |60490
5 | 13:26.41 |3:10.09 |60491 |74749
6 | 16:36.50 |3:18.36 |74750 |89635
7 | 19:55.11 |3:40.54 |89636 | 106189
8 | 23:35.65 |3:20.41 | 106190 | 121230
9 | 26:56.31 |3:19.68 | 121231 | 136223
10 | 30:16.24 |3:00.32 | 136224 | 149755
11 | 33:16.56 |3:19.45 | 149756 | 164725
12 | 36:36.26 |3:25.31 | 164726 | 180131
13 | 40:01.57 |4:01.49 | 180132 | 198255


范围状态及错误

已选择范围

文件名 C:\Users\888\Desktop\ZAYN - Icarus Falls(disc 1).wav

峰值电平 100.0 %
抓取速度 4.2 X
范围质量 100.0 %
复制 CRC FCD26DDC
复制成功

没有错误发生

状态报告结尾

==== 记录校验日志 DDF03D218AEF01A2FB1A61B5470F927CD2B1D60595F6C3810C65C40310BCC2FC ====







CD2:

Exact Audio Copy V1.5 from 20. February 2020

EAC 抓取日志文件从15. 十二月 2020, 14:45

ZAYN / Icarus Falls(disc 2)

使用驱动器:ASUS SDRW-08D2S-U Adapter: 1ID: 0

读取模式 : 可靠Secure
使用精确流 : 是
清空音频缓存 : 是
使用 C2 指示器 : 否

读取偏移校正: : 0
读取 Lead-In 和 Lead-Out : 否
用静音填充抓取中丢失偏移的采样 : 是
去除首尾静音块 : 否
在CRC 计算中使用了空样本 : 是
已用接口 : Win NT 及 2000 本地 Win32 接口

所用输出模式: : 内部 WAV 函数
样本格式 : 44.100 Hz; 16 Bit; 立体声


已抓取 CD 的 TOC

音轨 | 起始 | 长度 |起始扇区|结束扇区
--------------------------------------------
1 |0:00.00 |2:34.60 | 0 |11609
2 |2:34.60 |3:25.43 |11610 |27027
3 |6:00.28 |4:03.71 |27028 |45323
4 | 10:04.24 |3:28.00 |45324 |60923
5 | 13:32.24 |3:41.39 |60924 |77537
6 | 17:13.63 |3:22.45 |77538 |92732
7 | 20:36.33 |3:19.30 |92733 | 107687
8 | 23:55.63 |3:00.09 | 107688 | 121196
9 | 26:55.72 |2:48.03 | 121197 | 133799
10 | 29:44.00 |2:51.10 | 133800 | 146634
11 | 32:35.10 |2:55.58 | 146635 | 159817
12 | 35:30.68 |3:15.02 | 159818 | 174444
13 | 38:45.70 |2:51.18 | 174445 | 187287
14 | 41:37.13 |3:07.12 | 187288 | 201324


范围状态及错误

已选择范围

文件名 C:\Users\888\Desktop\ZAYN - Icarus Falls(disc 2).wav

峰值电平 100.0 %
抓取速度 4.3 X
范围质量 100.0 %
复制 CRC F8996047
复制成功

没有错误发生

状态报告结尾

==== 记录校验日志 A39F01C173F1A0D7CA06FD94D6399CB926F73819DAF9BE811A5AC49A7FAC0752 ====







试听曲目:Let Me








链接:包年会员可查看
FLAC 主要作品 11/23
The Chainsmokers
FLAC 个人生活 11/24
ZAYN
FLAC 歌曲鉴赏 11/24
Charlie Puth
FLAC 早年经历 11/24
Troye Sivan
FLAC 基本信息 11/25
David Guetta
 
 
由于百度网盘原因,易导致资源失效,您可以在页面上提交失效申报,我们尽量修复!
网易&QQ音乐文件解锁 /