Owl City
















微信截图_20221123211348.jpg (145.13 KB, 下载次数: 0)

下载附件



半小时前 上传














微信截图_20221123211358.jpg (99.31 KB, 下载次数: 0)

下载附件



半小时前 上传










专辑介绍:

◎ 专辑发行2个月歌曲下载量近40万,超过4600万次MySpace网络试听,iTunes音乐商店排行前列,更有黄金销量。

◎ 主打歌“Fireflies”率先占据热门潜力榜,入选iTunes「当周最佳单曲」名单!

你是不是也曾经梦想过,自己躲在房间捣鼓出来的音乐有一天也能成为众人追捧的流行?Adam Young的Owl City,是施展音乐抱负的舞台。

来自明尼苏达州的Adam,年仅24岁却深受80年代欧洲电子曲风和新浪潮音乐的影响,整合出一人团队Owl City五光十射的跳舞气流,并利用MySpace网络平台散发,惊人缔造多首单曲点播率大破五百万人次。

专辑《Ocean Eyes》由Adam一手包办制作/词曲撰写的重责大任,首周空降美国iTunes亚军+Billboard流行榜Top27。打从鲜明旋律拉起“Cave In”序幕,双脚不自觉的跟着敲起拍子,大量运用合成乐的特殊声效,顺畅建构属于电子流行的音乐王国;利用吉他爽朗拨弦当引子的“The Bird And The Worm”,伴随无压快乐的频率流动,围绕暖色的淡雅情调;点燃入夜海滩派对高潮的“Umbrella Beach”,发烧散布Synth-Pop的闪亮音阶;心情大开的“Dental Care”,轻Electro-Rock缓缓现形;机械化超激音场包裹“Fireflies”入选第一波攻势,率先占据热门潜力榜Top13,入选iTunes「当周最佳单曲」名单,飘荡着如梦似幻的氛围,更窜升出时髦光束;必能受到Lounge Bar的DJ喜爱之“The Tip Of The Iceberg”和“Tidal Wave”,百分百的提供慵懒与放松,你可以放任思绪遨游,跟着Owl City迎接夜降临的无限解放!





专辑曲目:

01. Cave In
02. The Bird and The Worm
03. Hello Seattle
04. Umbrella Beach
05. The Saltwater Room
06. Dental Care
07. Meteor Shower
08. On The Wing
09. Fireflies
10. The Tip Of The Iceberg
11. Vanilla Twilight
12. Tidal Wave







Exact Audio Copy V1.3 from 2. September 2016

EAC 抓取日志文件从5. 四月 2017, 17:46

Owl City / Ocean Eyes

使用驱动器:Optiarc DVD RW AD-7560A Adapter: 1ID: 0

读取模式 : 可靠Secure
使用精确流 : 是
清空音频缓存 : 是
使用 C2 指示器 : 否

读取偏移校正: : 6
读取 Lead-In 和 Lead-Out : 否
用静音填充抓取中丢失偏移的采样 : 是
去除首尾静音块 : 否
在CRC 计算中使用了空样本 : 是
已用接口 : Win NT 及 2000 本地 Win32 接口

所用输出模式: : 内部 WAV 函数
样本格式 : 44.100 Hz; 16 Bit; 立体声


已抓取 CD 的 TOC

音轨 | 起始 | 长度 |起始扇区|结束扇区
--------------------------------------------
1 |0:00.00 |4:02.13 | 0 |18162
2 |4:02.13 |3:27.40 |18163 |33727
3 |7:29.53 |2:47.14 |33728 |46266
4 | 10:16.67 |3:50.63 |46267 |63579
5 | 14:07.55 |4:02.44 |63580 |81773
6 | 18:10.24 |3:11.36 |81774 |96134
7 | 21:21.60 |2:13.59 |96135 | 106168
8 | 23:35.44 |5:01.16 | 106169 | 128759
9 | 28:36.60 |3:48.26 | 128760 | 145885
10 | 32:25.11 |3:22.73 | 145886 | 161108
11 | 35:48.09 |3:51.53 | 161109 | 178486
12 | 39:39.62 |3:10.15 | 178487 | 192751


范围状态及错误

已选择范围

文件名 C:\Users\磊\Desktop\Owl City - Ocean Eyes.wav

峰值电平 96.1 %
抓取速度 3.5 X
范围质量 99.9 %
复制 CRC 53AFE287
复制成功

没有错误发生


AccurateRip 摘要

音轨1精确地校准抓取12)[9DA1BBBE](AR v2)
音轨2精确地校准抓取12)[4D5CF78E](AR v2)
音轨3精确地校准抓取12)[7A423AF2](AR v2)
音轨4精确地校准抓取12)[3DB26DCD](AR v2)
音轨5精确地校准抓取12)[DDECF3A4](AR v2)
音轨6精确地校准抓取12)[7E0CFE57](AR v2)
音轨7精确地校准抓取12)[73ABF2C8](AR v2)
音轨8精确地校准抓取12)[690F52AE](AR v2)
音轨9精确地校准抓取13)[41B1FDFD](AR v2)
音轨 10精确地校准抓取12)[3F20108E](AR v2)
音轨 11精确地校准抓取12)[F3624E82](AR v2)
音轨 12精确地校准抓取12)[1308B6CA](AR v2)

所有音轨精确校准抓取

状态报告结尾

---- CUETools DB Plugin V2.1.6






试听曲目:Fireflies








链接:包年会员可查看
 
 
由于百度网盘原因,易导致资源失效,您可以在页面上提交失效申报,我们尽量修复!
网易&QQ音乐文件解锁 /