Enrique Iglesias
















微信截图_20221123210536.jpg (143.16 KB, 下载次数: 0)

下载附件



半小时前 上传














微信截图_20221123210547.jpg (139.49 KB, 下载次数: 0)

下载附件



半小时前 上传










专辑介绍:

《Sex + Love》是西班牙唱作人Enrique Iglesias第十张录音室专辑,也是他个人第二张双语专辑,由Universal Republic和Universal Latino联合发行,专辑于2014年3月18日全球首发。专辑中多首歌曲均是Enrique Iglesias于多位大牌合作,例如Pitbull,Yandel,Kylie Minogue等,可谓众星云集。

★告示牌史上缔造最多首舞曲榜冠军曲(13首)的男歌手,以24首西班牙文歌曲称霸热门拉丁单曲榜No.1荣登纪录保持人

★影歌天后Jennifer Lopez、舞曲女皇Kylie Minogue、饶舌巨星Pitbull、嘻哈天王Flo Rida、拉丁葛莱美奖「最佳新人」提名肯定India Martinez…超闪阵容站台

★收录登榜强打:“Turn The Night Up”、“Loco”、“Heart Attack”、“El Perdedor”、“I’m A Freak”、“I Like How It Feels”、“Finally Found You”

Billboard杂志封他为拉丁流行乐之王以及舞曲之王,嗓音性感且拥有极高辨识度的安立奎,至今全球专辑销售已突破上亿张,他不仅是告示牌史上缔造最多首舞曲榜冠军曲(13首)的男歌手,更是以多达24首西班牙文歌曲称霸热门拉丁单曲榜No.1的纪录保持人!发行过四张西班牙文专辑,全数完封美国拉丁专辑榜冠军,四张英文大碟也全部进驻流行专辑榜TOP 40;共计抱回包括葛莱美、全美音乐奖、世界音乐奖、告示牌、MTV…等141座奖项加冕。





专辑曲目:

01. I'm a Freak (feat. Pitbull)
02. There Goes My Baby (feat. Flo Rida)
03. Bailando (feat. Descemer Bueno & Gente de Zona)
04. El Perdedor (feat. Marco Antonio Solís)
05. Loco (feat. Romeo Santos)
06. Let Me Be Your Lover (feat. Pitbull)
07. You and I
08. Heart Attack
09. Me Cuesta Tanto Olvidarte
10. Noche y Día (feat. Yandel & Juan Magan)
11. Loco (feat. India Martínez)





Exact Audio Copy V1.3 from 2. September 2016

EAC 抓取日志文件从15. 四月 2017, 15:41

Enrique Iglesias / Sex and Love

使用驱动器:Optiarc DVD RW AD-7560A Adapter: 1ID: 0

读取模式 : 可靠Secure
使用精确流 : 是
清空音频缓存 : 是
使用 C2 指示器 : 否

读取偏移校正: : 6
读取 Lead-In 和 Lead-Out : 否
用静音填充抓取中丢失偏移的采样 : 是
去除首尾静音块 : 否
在CRC 计算中使用了空样本 : 是
已用接口 : Win NT 及 2000 本地 Win32 接口

所用输出模式: : 内部 WAV 函数
样本格式 : 44.100 Hz; 16 Bit; 立体声


已抓取 CD 的 TOC

音轨 | 起始 | 长度 |起始扇区|结束扇区
--------------------------------------------
1 |0:00.00 |3:39.26 | 0 |16450
2 |3:39.26 |3:18.20 |16451 |31320
3 |6:57.46 |4:03.31 |31321 |49576
4 | 11:01.02 |3:11.32 |49577 |63933
5 | 14:12.34 |3:33.11 |63934 |79919
6 | 17:45.45 |3:58.31 |79920 |97800
7 | 21:44.01 |3:05.41 |97801 | 111716
8 | 24:49.42 |2:50.11 | 111717 | 124477
9 | 27:39.53 |3:34.13 | 124478 | 140540
10 | 31:13.66 |3:42.52 | 140541 | 157242
11 | 34:56.43 |3:13.05 | 157243 | 171722


范围状态及错误

已选择范围

文件名 C:\Users\磊\Desktop\Enrique Iglesias - Sex and Love.wav

峰值电平 99.8 %
抓取速度 4.2 X
范围质量 99.9 %
复制 CRC 5950DC6C
复制成功

没有错误发生


AccurateRip 摘要

音轨1精确地校准抓取13)[5E2F1A0F](AR v2)
音轨2精确地校准抓取13)[8B911A7F](AR v2)
音轨3精确地校准抓取13)[91A34E02](AR v2)
音轨4精确地校准抓取13)[CBEA32DF](AR v2)
音轨5精确地校准抓取12)[866D0E07](AR v2)
音轨6精确地校准抓取13)[D31529D7](AR v2)
音轨7精确地校准抓取13)[44A5F02F](AR v2)
音轨8精确地校准抓取12)[74388A4F](AR v2)
音轨9精确地校准抓取13)[E10F2F32](AR v2)
音轨 10精确地校准抓取13)[B8834DFA](AR v2)
音轨 11精确地校准抓取13)[536E1E6C](AR v2)

所有音轨精确校准抓取

状态报告结尾

---- CUETools DB Plugin V2.1.6






试听曲目:Bailando







链接:包年会员可查看
 
 
由于百度网盘原因,易导致资源失效,您可以在页面上提交失效申报,我们尽量修复!
网易&QQ音乐文件解锁 /