One Direction
















微信截图_20221124144139.jpg (271.69 KB, 下载次数: 0)

下载附件



7小时前 上传














微信截图_20221124144149.jpg (185.2 KB, 下载次数: 0)

下载附件



7小时前 上传










专辑介绍:

青春必杀技 全面开课

新世代唯1偶像 单向组合

第四张专辑 青春第四课 终极必修版

◎美国公告牌史上第一组团体三张专辑空降冠军纪录,全球超过4600万张销售,滚石杂志册封「史上25组最强偶像」第四张必杀大碟

◎囊括2014全英音乐奖「全球最成功英国团体」及「最佳音乐录影带」等共168座奖项

◎iTunes专辑预购抢下首发24小时登顶65国冠军





专辑曲目:

Steal My Girl
Ready To Run
Where Do Broken Hearts Go
18
Girl Almighty
Fool's Gold
Night Changes
No Control
Fireproof
Spaces
Stockholm Syndrome
Clouds







Exact Audio Copy V1.3 from 2. September 2016

EAC 抓取日志文件从16. 四月 2017, 16:20

One Direction / Four

使用驱动器:ASUS SDRW-08D2S-U Adapter: 1ID: 0

读取模式 : 可靠Secure
使用精确流 : 是
清空音频缓存 : 是
使用 C2 指示器 : 否

读取偏移校正: : 6
读取 Lead-In 和 Lead-Out : 是
用静音填充抓取中丢失偏移的采样 : 是
去除首尾静音块 : 否
在CRC 计算中使用了空样本 : 是
已用接口 : Win NT 及 2000 本地 Win32 接口

所用输出模式: : 内部 WAV 函数
样本格式 : 44.100 Hz; 16 Bit; 立体声


已抓取 CD 的 TOC

音轨 | 起始 | 长度 |起始扇区|结束扇区
--------------------------------------------
1 |0:00.00 |3:48.10 | 0 |17109
2 |3:48.10 |3:16.04 |17110 |31813
3 |7:04.14 |3:49.03 |31814 |48991
4 | 10:53.17 |4:08.27 |48992 |67618
5 | 15:01.44 |3:21.64 |67619 |82757
6 | 18:23.33 |3:30.67 |82758 |98574
7 | 21:54.25 |3:46.45 |98575 | 115569
8 | 25:40.70 |3:19.54 | 115570 | 130548
9 | 29:00.49 |2:54.06 | 130549 | 143604
10 | 31:54.55 |4:16.53 | 143605 | 162857
11 | 36:11.33 |3:34.54 | 162858 | 178961
12 | 39:46.12 |3:51.53 | 178962 | 196339


范围状态及错误

已选择范围

文件名 C:\Users\磊\Desktop\One Direction - Four.wav

峰值电平 99.8 %
抓取速度 4.1 X
范围质量 99.9 %
复制 CRC 694A5FE3
复制成功

没有错误发生

状态报告结尾

---- CUETools DB Plugin V2.1.6






试听曲目:Night Changes








链接:包年会员可查看
 
 
由于百度网盘原因,易导致资源失效,您可以在页面上提交失效申报,我们尽量修复!
网易&QQ音乐文件解锁 /