Troye Sivan
















微信截图_20221124130712.jpg (270.67 KB, 下载次数: 0)

下载附件



8小时前 上传














微信截图_20221124130721.jpg (109.24 KB, 下载次数: 0)

下载附件



8小时前 上传










专辑介绍:

让泰勒斯威夫特惊豔 让阿黛尔哭泣

“【WILD】很出色及棒透了” –泰勒斯威夫特

“特洛伊的歌声,感动了我” –山姆史密斯

★时代杂志「25大具有影响力青少年」、MTV音乐大奖「最有潜力新人」20岁电气才子首张大碟

★收录挑战性别禁忌三部曲"Wild"、"Fools"、"Take Me Down";豪华版超收六首加值曲

《Blue Neighbourhood》是特洛耶·希文于2015年12月4日发行的首张专辑,共收录18首歌曲。专辑制作人是Emile Haynie和特洛耶·希文。

2016年,专辑歌曲《Youth》获得美国青少年选择奖“最佳男歌手单曲奖”提名。

是什麽样的歌声能够让当今乐坛两大天后Taylor Swift 及Adele同时称讚,还能够在20岁之前就荣获时代杂志「25大具有影响力青少年」的肯定,更一举夺下MTV欧洲音乐大奖「最有潜力新人」的荣耀,现在请你务必记住这个名字—特洛伊/Troye Sivan.

出生于南非约翰尼斯堡的特洛伊,从小便热衷于音乐和戏剧,在12岁那年先是独立录制了一张名为【Dare to Dream】的EP,开启了他的音乐生涯;同时,标致帅气的外型也吸引到电影圈的青睐,受邀在电影《X战警:金钢狼》饰演年少金钢狼;而在17岁时,再次独立发行了一张EP 【June Haverly】。这两张全由特洛伊一人独立操刀完成,在网络上累积了超高人气。今年20岁的他,以迷你专辑【Wild 】抢下英美专辑榜TOP5,荣获时代杂志「25大具有影响力青少年」、MTV欧洲音乐大奖「最有潜力新人」得主,他是音乐界中不可多得的电气才子,也是乐坛最令人惊艳的新生代。

在经历了两张独立EP发行,便受到了环球音乐旗下厂牌EMI瞩目,并相中签下唱片合约,期待能够成为新世代中的最闪耀的一颗新星;而特洛伊也没有让人失望,在随后两张主流作品【TRXYE】与【Wild】发行顺利攻上了各国排行榜,人气与销量都瞬间爆衝,他的音乐及演出也让当今乐坛众多巨星如Taylor Swift、Sam Smith、Adele等的大力推荐,专属YouTube频道更突破2亿人次的观看;为专辑精心打造的三部曲"Wild"、"Fools"与"Take Me Down",MV描述了童年好友日久生情,勇于挑战性别上的议题和真诚搬上大萤幕,获得了巨大的迴响。在全球歌迷的衷心期盼之下,终于宣布了首张专辑【Blue Neighbourhood】的诞生。





专辑曲目:

1. Wild
2. Bite
3. Fools
4. Ease (Ft. Broods)
5. The Quiet
6. Dkla (Ft. Tkay Maidza)
7. Talk Me Down
8. Cool
9. Heaven (Ft. Betty Who)
10. Youth
11. Lost Boy
12. For Him. (Ft. Allday)
13. Suburbia
14. Too Good
15. Blue (Ft. Alex Hope)
16. Wild (Xxyyxx Remix)






Exact Audio Copy V1.6 from 23. October 2020

EAC 抓取日志文件从23. 十一月 2022, 23:51

Troye Sivan / Blue Neighbourhood

使用驱动器:ASUS SDRW-08D1S-U Adapter: 1ID: 0

读取模式 : 可靠Secure
使用精确流 : 是
清空音频缓存 : 是
使用 C2 指示器 : 否

读取偏移校正: : 0
读取 Lead-In 和 Lead-Out : 否
用静音填充抓取中丢失偏移的采样 : 是
去除首尾静音块 : 否
在CRC 计算中使用了空样本 : 是
已用接口 : Win NT 及 2000 本地 Win32 接口

所用输出模式: : 内部 WAV 函数
样本格式 : 44.100 Hz; 16 Bit; 立体声


已抓取 CD 的 TOC

音轨 | 起始 | 长度 |起始扇区|结束扇区
--------------------------------------------
1 |0:00.00 |3:48.05 | 0 |17104
2 |3:48.05 |3:06.04 |17105 |31058
3 |6:54.09 |3:40.32 |31059 |47590
4 | 10:34.41 |3:33.53 |47591 |63618
5 | 14:08.19 |3:46.15 |63619 |80583
6 | 17:54.34 |4:15.69 |80584 |99777
7 | 22:10.28 |3:57.35 |99778 | 117587
8 | 26:07.63 |3:22.08 | 117588 | 132745
9 | 29:29.71 |4:21.16 | 132746 | 152336
10 | 33:51.12 |3:05.15 | 152337 | 166226
11 | 36:56.27 |3:43.64 | 166227 | 183015
12 | 40:40.16 |3:28.53 | 183016 | 198668
13 | 44:08.69 |3:53.60 | 198669 | 216203
14 | 48:02.54 |3:44.28 | 216204 | 233031
15 | 51:47.07 |3:31.61 | 233032 | 248917
16 | 55:18.68 |3:33.01 | 248918 | 264893


范围状态及错误

已选择范围

文件名 D:\CD 抓取\Troye Sivan - Blue Neighbourhood.wav

峰值电平 100.0 %
抓取速度 2.1 X
范围质量 100.0 %
复制 CRC 4BB47577
复制成功

没有错误发生

状态报告结尾

==== 记录校验日志 BA356AE26138CFFCA801E51BD5BBE2548C96FAB488403BA598C0BDE68037269C ====








试听曲目:Youth







链接:包年会员可查看
FLAC 主要作品 11/23
The Chainsmokers
FLAC 乐团简介 11/24
One Direction
FLAC 个人生活 11/24
ZAYN
FLAC 歌曲鉴赏 11/24
Charlie Puth
FLAC 巡演及上座率 11/24
Nicki Minaj
FLAC 基本信息 11/25
David Guetta
FLAC 专辑鉴赏 11/25
Lorde
 
 
由于百度网盘原因,易导致资源失效,您可以在页面上提交失效申报,我们尽量修复!
网易&QQ音乐文件解锁 /